查看: 27|回复: 1

[纪录片] 非洲天空下 Under.African.Skies.2012.1080p.AMZN.WEBRip.DDP5.1.x264-monkee 8.89GB

[复制链接]

 成长值: 2930

级别:资源管理组

注册时间
2017-10-20
最后登录
2019-10-24
听众
1
收听
0
主题
85436
蓝光币
56824 枚
贡献
9794 点
发表于 2019-9-21 13:34:45 | 显示全部楼层 |阅读模式
非洲天空下 Under.African.Skies.2012.1080p.AMZN.WEBRip.DDP5.1.x264-monkee 8.89GB-1.png

译  名 非洲天空下
片  名 Under African Skies
年  代 2012
产  地 美国
类  别 记载片
语  言 英语
IMDb评分  7.8/10 from 442 users
IMDb链接  http://www.imdb.com/title/tt2112868
豆瓣评分 0/10 from 0 users
豆瓣链接 https://movie.douban.com/subject/10455082/
片  长 108分钟
导  演 Joe Berlinger
主  演 玛雅·安吉洛 Maya Angelou
       乌比·戈德堡 Whoopi Goldberg
       Okeyerama Asante
       哈里·贝拉方特 Harry Belafonte


标  签 记载片 | Documentary | PaulSimon | 2012 | 音乐 | 非洲 | 南非 | 美国

简  介  

  Paul Simon returns to South Africa to explore the incredible journey of his historic Graceland album, including the political backlash he received for allegedly breaking the UN cultural boycott of South Africa designed to end the Apartheid regime.
  1. Video
  2. ID                                       : 1
  3. Format                                   : AVC
  4. Format/Info                              : Advanced Video Codec
  5. Format profile                           : High@L4
  6. Format settings                          : CABAC / 4 Ref Frames
  7. Format settings, CABAC                   : Yes
  8. Format settings, Reference frames        : 4 frames
  9. Codec ID                                 : V_MPEG4/ISO/AVC
  10. Duration                                 : 2 h 2 min
  11. Bit rate mode                            : Variable
  12. Bit rate                                 : 9 749 kb/s
  13. Maximum bit rate                         : 15.0 Mb/s
  14. Width                                    : 1 920 pixels
  15. Height                                   : 1 080 pixels
  16. Display aspect ratio                     : 16:9
  17. Frame rate mode                          : Constant
  18. Frame rate                               : 23.976 (24000/1001) FPS
  19. Color space                              : YUV
  20. Chroma subsampling                       : 4:2:0
  21. Bit depth                                : 8 bits
  22. Scan type                                : Progressive
  23. Bits/(Pixel*Frame)                       : 0.196
  24. Stream size                              : 8.34 GiB (94%)
  25. Writing library                          : x264 core 148 r2623 d5b2374
  26. Encoding settings                        : cabac=1 / ref=4 / deblock=1:-1:-1 / analyse=0x3:0x133 / me=umh / subme=9 / psy=1 / psy_rd=1.00:0.15 / mixed_ref=1 / me_range=24 / chroma_me=1 / trellis=2 / 8x8dct=1 / cqm=0 / deadzone=21,11 / fast_pskip=1 / chroma_qp_offset=-3 / threads=34 / lookahead_threads=5 / sliced_threads=0 / nr=150 / decimate=1 / interlaced=0 / bluray_compat=0 / constrained_intra=0 / bframes=8 / b_pyramid=2 / b_adapt=2 / b_bias=0 / direct=3 / weightb=1 / open_gop=0 / weightp=2 / keyint=120 / keyint_min=61 / scenecut=0 / intra_refresh=0 / rc_lookahead=120 / rc=crf / mbtree=1 / crf=18.0 / qcomp=0.60 / qpmin=0 / qpmax=69 / qpstep=4 / vbv_maxrate=15000 / vbv_bufsize=31250 / crf_max=0.0 / nal_hrd=vbr / filler=0 / ip_ratio=1.40 / aq=3:1.00
  27. Default                                  : Yes
  28. Forced                                   : No
  29. Color range                              : Limited
  30. Color primaries                          : BT.709
  31. Transfer characteristics                 : BT.709
  32. Matrix coefficients                      : BT.709

  33. Audio
  34. ID                                       : 2
  35. Format                                   : E-AC-3
  36. Format/Info                              : Enhanced AC-3
  37. Commercial name                          : Dolby Digital Plus
  38. Codec ID                                 : A_EAC3
  39. Duration                                 : 2 h 2 min
  40. Bit rate mode                            : Constant
  41. Bit rate                                 : 640 kb/s
  42. Channel(s)                               : 6 channels
  43. Channel layout                           : L R C LFE Ls Rs
  44. Sampling rate                            : 48.0 kHz
  45. Frame rate                               : 31.250 FPS (1536 SPF)
  46. Compression mode                         : Lossy
  47. Stream size                              : 561 MiB (6%)
  48. Language                                 : English
  49. Service kind                             : Complete Main
  50. Default                                  : Yes
  51. Forced                                   : No

  52. Text
  53. ID                                       : 3
  54. Format                                   : UTF-8
  55. Codec ID                                 : S_TEXT/UTF8
  56. Codec ID/Info                            : UTF-8 Plain Text
  57. Duration                                 : 1 h 39 min
  58. Bit rate                                 : 86 b/s
  59. Count of elements                        : 1495
  60. Stream size                              : 63.3 KiB (0%)
  61. Language                                 : English
  62. Default                                  : No
  63. Forced                                   : No
复制代码

非洲天空下 Under.African.Skies.2012.1080p.AMZN.WEBRip.DDP5.1.x264-monkee 8.89GB-2.png 非洲天空下 Under.African.Skies.2012.1080p.AMZN.WEBRip.DDP5.1.x264-monkee 8.89GB-3.png 非洲天空下 Under.African.Skies.2012.1080p.AMZN.WEBRip.DDP5.1.x264-monkee 8.89GB-4.png 非洲天空下 Under.African.Skies.2012.1080p.AMZN.WEBRip.DDP5.1.x264-monkee 8.89GB-5.png 非洲天空下 Under.African.Skies.2012.1080p.AMZN.WEBRip.DDP5.1.x264-monkee 8.89GB-6.png 非洲天空下 Under.African.Skies.2012.1080p.AMZN.WEBRip.DDP5.1.x264-monkee 8.89GB-7.png






VIP会员免费任意下载本站所有资源!---点击开通
回复

使用道具 举报

级别:一举成名 Lv.7

注册时间
2019-4-24
最后登录
2019-10-23
听众
13
收听
0
主题
0
蓝光币
167 枚
贡献
0 点
发表于 2019-9-23 10:58:30 | 显示全部楼层
楼主发贴辛苦了,谢谢楼主分享!我觉得中国高清电影网是注册对了!
VIP会员免费任意下载本站所有资源!---点击开通
回复

使用道具 举报

懒得打字嘛,点击右侧快捷回复 【右侧内容,后台自定义】
您需要登录后才可以回帖 登录 | 立即注册

本版积分规则

QQ|Archiver|手机版|小黑屋| 中国高清网 |网站地图

GMT+8, 2019-10-24 07:22 , Processed in 0.264461 second(s), 39 queries .

Powered by HDchina X3.4

Copyright 2017-2019©HDchina.All right reserved

返回顶部 联系我们