查看: 25|回复: 1

[惊悚片] 生活区 The.Life.Zone.2011.1080p.AMZN.WEBRip.AAC2.0.x264-TrollHD 5.68GB

[复制链接]

 成长值: 2930

级别:资源管理组

注册时间
2017-10-20
最后登录
2019-10-24
听众
1
收听
0
主题
85436
蓝光币
56824 枚
贡献
9794 点
发表于 2019-9-21 13:32:08 | 显示全部楼层 |阅读模式
生活区 The.Life.Zone.2011.1080p.AMZN.WEBRip.AAC2.0.x264-TrollHD 5.68GB-1.png

译  名 生活区
片  名 The Life Zone
年  代 2011
产  地 美国
类  别 惊悚
语  言 英语
上映日期 2011-06-10(霍博肯国际电影节) / 2015-04-04(Cinequest影展)
IMDb评分  2.0/10 from 474 users
IMDb链接  http://www.imdb.com/title/tt1786714
豆瓣评分 0/10 from 0 users
豆瓣链接 https://movie.douban.com/subject/26848686/
片  长 81分钟(美国)
导  演 Rod Weber
编  剧 Ken Del Vecchio
主  演 罗伯特·劳吉亚 Robert Loggia
       琳赛·霍恩 Lindsey Haun
       马丁·科夫 Martin Kove


标  签 营业。加速度 | hh

简  介  

  经过一个奥秘人物绑架了,三个女人发现自己被困在一个烧毁的医院。
  1. Video
  2. ID                                       : 1
  3. Format                                   : AVC
  4. Format/Info                              : Advanced Video Codec
  5. Format profile                           : High@L4
  6. Format settings                          : CABAC / 4 Ref Frames
  7. Format settings, CABAC                   : Yes
  8. Format settings, Reference frames        : 4 frames
  9. Format settings, GOP                     : M=4, N=48
  10. Codec ID                                 : avc1
  11. Codec ID/Info                            : Advanced Video Coding
  12. Duration                                 : 1 h 20 min
  13. Bit rate mode                            : Constant
  14. Bit rate                                 : 10 000 kb/s
  15. Width                                    : 1 920 pixels
  16. Height                                   : 816 pixels
  17. Display aspect ratio                     : 2.35:1
  18. Frame rate mode                          : Constant
  19. Frame rate                               : 23.976 (24000/1001) FPS
  20. Color space                              : YUV
  21. Chroma subsampling                       : 4:2:0
  22. Bit depth                                : 8 bits
  23. Scan type                                : Progressive
  24. Bits/(Pixel*Frame)                       : 0.266
  25. Stream size                              : 5.60 GiB (99%)
  26. Language                                 : English
  27. Encoded date                             : UTC 2014-07-04 17:48:38
  28. Tagged date                              : UTC 2014-07-04 17:48:38
  29. Color range                              : Limited
  30. Color primaries                          : BT.709
  31. Transfer characteristics                 : BT.709
  32. Matrix coefficients                      : BT.709
  33. Codec configuration box                  : avcC

  34. Audio
  35. ID                                       : 2
  36. Format                                   : AAC LC
  37. Format/Info                              : Advanced Audio Codec Low Complexity
  38. Codec ID                                 : mp4a-40-2
  39. Duration                                 : 1 h 20 min
  40. Bit rate mode                            : Variable
  41. Bit rate                                 : 125 kb/s
  42. Maximum bit rate                         : 396 kb/s
  43. Channel(s)                               : 2 channels
  44. Channel layout                           : L R
  45. Sampling rate                            : 48.0 kHz
  46. Frame rate                               : 46.875 FPS (1024 SPF)
  47. Compression mode                         : Lossy
  48. Stream size                              : 72.0 MiB (1%)
  49. Language                                 : English
  50. Encoded date                             : UTC 2014-07-04 17:48:38
  51. Tagged date                              : UTC 2014-07-04 17:48:38
复制代码

生活区 The.Life.Zone.2011.1080p.AMZN.WEBRip.AAC2.0.x264-TrollHD 5.68GB-2.png 生活区 The.Life.Zone.2011.1080p.AMZN.WEBRip.AAC2.0.x264-TrollHD 5.68GB-3.png 生活区 The.Life.Zone.2011.1080p.AMZN.WEBRip.AAC2.0.x264-TrollHD 5.68GB-4.png 生活区 The.Life.Zone.2011.1080p.AMZN.WEBRip.AAC2.0.x264-TrollHD 5.68GB-5.png 生活区 The.Life.Zone.2011.1080p.AMZN.WEBRip.AAC2.0.x264-TrollHD 5.68GB-6.png 生活区 The.Life.Zone.2011.1080p.AMZN.WEBRip.AAC2.0.x264-TrollHD 5.68GB-7.png







VIP会员免费任意下载本站所有资源!---点击开通
回复

使用道具 举报

级别:一举成名 Lv.7

注册时间
2019-4-24
最后登录
2019-10-23
听众
13
收听
0
主题
0
蓝光币
167 枚
贡献
0 点
发表于 2019-9-23 11:03:37 | 显示全部楼层
楼主发贴辛苦了,谢谢楼主分享!我觉得中国高清电影网是注册对了!
VIP会员免费任意下载本站所有资源!---点击开通
回复

使用道具 举报

懒得打字嘛,点击右侧快捷回复 【右侧内容,后台自定义】
您需要登录后才可以回帖 登录 | 立即注册

本版积分规则

QQ|Archiver|手机版|小黑屋| 中国高清网 |网站地图

GMT+8, 2019-10-24 07:32 , Processed in 0.350967 second(s), 39 queries .

Powered by HDchina X3.4

Copyright 2017-2019©HDchina.All right reserved

返回顶部 联系我们