查看: 148|回复: 1

[8bit.SDR] 天使之心/天使心 Angel.Heart.1987.2160p.BluRay.x264.8bit.SDR.DTS-HD.MA.5.1-SWTYBLZ 78.36GB

[复制链接]

 成长值: 2930

级别:资源管理组

注册时间
2017-10-20
最后登录
2019-10-24
听众
1
收听
0
主题
85436
蓝光币
56824 枚
贡献
9794 点
发表于 2019-9-21 13:28:39 | 显示全部楼层 |阅读模式
天使之心/天使心 Angel.Heart.1987.2160p.BluRay.x264.8bit.SDR.DTS-HD.MA.5.1-SWTYBLZ 78.36GB-1.png

译  名 天使之心 / 天使心 / 天使追魂 / 安格尔的心 / 赤裸天使
片  名 Angel Heart
年  代 1987
产  地 美国 / 加拿大 / 英国
类  别 悬疑 / 惊悚 / 可骇
语  言 英语 / 法语
上映日期 1988-11-17
IMDb评分  7.3/10 from 73043 users
IMDb链接  http://www.imdb.com/title/tt0092563
豆瓣评分 7.0/10 from 1487 users
豆瓣链接 https://movie.douban.com/subject/1294764/
片  长 113 分钟
导  演 艾伦·帕克 Alan Parker
编  剧 William Hjortsberg / 艾伦·帕克 Alan Parker
主  演 罗伯特·德尼罗 Robert De Niro
      米基·洛克 Mickey Rourke
      莉莎·博内特 Lisa Bonet
      夏洛特·兰普林 Charlotte Rampling
      Stocker Fontelieu
      Brownie McGhee
      Michael Higgins
      Eliott Keener
      Charles Gordone
      Dann Florek
      凯瑟琳·威尔霍特 Kathleen Wilhoite


标  签 悬疑 | 美国 | 宗教 | 惊悚 | 罗伯特·德尼罗 | RobertDeNiro | AlanParker | 可骇

简  介  

  故事起头于1955年的纽约布鲁克林区,哈里·安格尔(米基·洛克 饰)是个胡子不剃、不停吸烟的私人侦察,专门观察仳离案。一天,一个自称叫路易斯·赛佛雷(罗伯特·德尼罗 饰)的奥秘本国人找到了他,要他去寻觅一个叫弗沃里特的讴歌家。这项使命钱很多,看起来也很轻松,哈里就接管了。 可是,哈里在观察中发现,自己所打仗的每个与这件工作有关的人,都逐一被杀戮:医生福勒、玛格丽特(夏洛特·兰普林 饰)、黑人音乐家图茨、伊桑。渐渐他发觉到工作的严重与奥秘,自己也深陷其中,没法自拔。
本片改编自威廉·乔兹伯格的小说《出错天使》。

  1. Video
  2. ID                                       : 1
  3. Format                                   : AVC
  4. Format/Info                              : Advanced Video Codec
  5. Format profile                           : High@L4
  6. Format settings                          : CABAC / 5 Ref Frames
  7. Format settings, CABAC                   : Yes
  8. Format settings, Reference frames        : 5 frames
  9. Codec ID                                 : V_MPEG4/ISO/AVC
  10. Duration                                 : 1 h 53 min
  11. Bit rate                                 : 95.6 Mb/s
  12. Width                                    : 3 840 pixels
  13. Height                                   : 2 076 pixels
  14. Display aspect ratio                     : 1.85:1
  15. Frame rate mode                          : Constant
  16. Frame rate                               : 24.000 FPS
  17. Color space                              : YUV
  18. Chroma subsampling                       : 4:2:0
  19. Bit depth                                : 8 bits
  20. Scan type                                : Progressive
  21. Bits/(Pixel*Frame)                       : 0.500
  22. Stream size                              : 75.6 GiB (97%)
  23. Title                                    : Angel.Heart.1987.2160p.BluRay.x264.8bit.SDR.DTS-HD.MA.5.1-SWTYBLZ
  24. Writing library                          : x264 core 157 r2935 545de2f
  25. Encoding settings                        : cabac=1 / ref=5 / deblock=1:-1:-1 / analyse=0x3:0x113 / me=umh / subme=10 / psy=1 / psy_rd=1.00:0.15 / mixed_ref=1 / me_range=48 / chroma_me=1 / trellis=2 / 8x8dct=1 / cqm=0 / deadzone=21,11 / fast_pskip=1 / chroma_qp_offset=-3 / threads=48 / lookahead_threads=4 / sliced_threads=0 / nr=0 / decimate=0 / interlaced=0 / bluray_compat=0 / constrained_intra=0 / bframes=3 / b_pyramid=2 / b_adapt=2 / b_bias=0 / direct=3 / weightb=1 / open_gop=0 / weightp=2 / keyint=250 / keyint_min=24 / scenecut=40 / intra_refresh=0 / rc_lookahead=50 / rc=crf / mbtree=1 / crf=20.0 / qcomp=0.60 / qpmin=0 / qpmax=69 / qpstep=4 / ip_ratio=1.40 / aq=1:1.00
  26. Default                                  : Yes
  27. Forced                                   : No

  28. Audio #1
  29. ID                                       : 2
  30. Format                                   : DTS XLL
  31. Format/Info                              : Digital Theater Systems
  32. Commercial name                          : DTS-HD Master Audio
  33. Codec ID                                 : A_DTS
  34. Duration                                 : 1 h 53 min
  35. Bit rate mode                            : Variable
  36. Bit rate                                 : 2 461 kb/s
  37. Channel(s)                               : 6 channels
  38. Channel layout                           : C L R Ls Rs LFE
  39. Sampling rate                            : 48.0 kHz
  40. Frame rate                               : 93.750 FPS (512 SPF)
  41. Bit depth                                : 24 bits
  42. Compression mode                         : Lossless
  43. Stream size                              : 1.95 GiB (2%)
  44. Title                                    : Angel.Heart.1987.2160p.BluRay.x264.8bit.SDR.DTS-HD.MA.5.1-SWTYBLZ
  45. Language                                 : English
  46. Default                                  : Yes
  47. Forced                                   : No

  48. Audio #2
  49. ID                                       : 3
  50. Format                                   : AC-3
  51. Format/Info                              : Audio Coding 3
  52. Commercial name                          : Dolby Digital
  53. Codec ID                                 : A_AC3
  54. Duration                                 : 1 h 53 min
  55. Bit rate mode                            : Constant
  56. Bit rate                                 : 640 kb/s
  57. Channel(s)                               : 6 channels
  58. Channel layout                           : L R C LFE Ls Rs
  59. Sampling rate                            : 48.0 kHz
  60. Frame rate                               : 31.250 FPS (1536 SPF)
  61. Bit depth                                : 16 bits
  62. Compression mode                         : Lossy
  63. Stream size                              : 518 MiB (1%)
  64. Title                                    : Angel.Heart.1987.2160p.BluRay.x264.8bit.SDR.DTS-HD.MA.5.1-SWTYBLZ
  65. Language                                 : English
  66. Service kind                             : Complete Main
  67. Default                                  : No
  68. Forced                                   : No

  69. Text #1
  70. ID                                       : 4
  71. Format                                   : UTF-8
  72. Codec ID                                 : S_TEXT/UTF8
  73. Codec ID/Info                            : UTF-8 Plain Text
  74. Duration                                 : 1 h 52 min
  75. Bit rate                                 : 52 b/s
  76. Count of elements                        : 1076
  77. Stream size                              : 43.2 KiB (0%)
  78. Title                                    : English-SRT
  79. Language                                 : English
  80. Default                                  : Yes
  81. Forced                                   : No

  82. Text #2
  83. ID                                       : 5
  84. Format                                   : PGS
  85. Muxing mode                              : zlib
  86. Codec ID                                 : S_HDMV/PGS
  87. Codec ID/Info                            : Picture based subtitle format used on BDs/HD-DVDs
  88. Duration                                 : 1 h 49 min
  89. Bit rate                                 : 28.7 kb/s
  90. Count of elements                        : 1716
  91. Stream size                              : 22.6 MiB (0%)
  92. Title                                    : German-PGS
  93. Language                                 : German
  94. Default                                  : No
  95. Forced                                   : No

  96. Text #3
  97. ID                                       : 6
  98. Format                                   : PGS
  99. Muxing mode                              : zlib
  100. Codec ID                                 : S_HDMV/PGS
  101. Codec ID/Info                            : Picture based subtitle format used on BDs/HD-DVDs
  102. Duration                                 : 1 h 49 min
  103. Bit rate                                 : 23.6 kb/s
  104. Count of elements                        : 1828
  105. Stream size                              : 18.5 MiB (0%)
  106. Title                                    : French-PGS
  107. Language                                 : French
  108. Default                                  : No
  109. Forced                                   : No

  110. Menu
  111. 00:00:00.000                             : en:Chapter 01
  112. 00:11:36.750                             : en:Chapter 02
  113. 00:21:19.666                             : en:Chapter 03
  114. 00:29:17.083                             : en:Chapter 04
  115. 00:41:01.625                             : en:Chapter 05
  116. 00:50:47.208                             : en:Chapter 06
  117. 00:55:40.166                             : en:Chapter 07
  118. 01:01:55.291                             : en:Chapter 08
  119. 01:13:21.333                             : en:Chapter 09
  120. 01:23:24.708                             : en:Chapter 10
  121. 01:33:21.375                             : en:Chapter 11
  122. 01:41:31.375                             : en:Chapter 12
复制代码

天使之心/天使心 Angel.Heart.1987.2160p.BluRay.x264.8bit.SDR.DTS-HD.MA.5.1-SWTYBLZ 78.36GB-2.png 天使之心/天使心 Angel.Heart.1987.2160p.BluRay.x264.8bit.SDR.DTS-HD.MA.5.1-SWTYBLZ 78.36GB-3.png 天使之心/天使心 Angel.Heart.1987.2160p.BluRay.x264.8bit.SDR.DTS-HD.MA.5.1-SWTYBLZ 78.36GB-4.png 天使之心/天使心 Angel.Heart.1987.2160p.BluRay.x264.8bit.SDR.DTS-HD.MA.5.1-SWTYBLZ 78.36GB-5.png 天使之心/天使心 Angel.Heart.1987.2160p.BluRay.x264.8bit.SDR.DTS-HD.MA.5.1-SWTYBLZ 78.36GB-6.png 天使之心/天使心 Angel.Heart.1987.2160p.BluRay.x264.8bit.SDR.DTS-HD.MA.5.1-SWTYBLZ 78.36GB-7.png 天使之心/天使心 Angel.Heart.1987.2160p.BluRay.x264.8bit.SDR.DTS-HD.MA.5.1-SWTYBLZ 78.36GB-8.png






本帖隐藏的下载地址需要VIP会员才可阅读,您需要升级才可阅读,点击这里升级VIP
VIP会员免费任意下载本站所有资源!---点击开通
回复

使用道具 举报

级别:一举成名 Lv.7

注册时间
2019-4-24
最后登录
2019-10-23
听众
13
收听
0
主题
0
蓝光币
167 枚
贡献
0 点
发表于 2019-9-23 11:07:35 | 显示全部楼层
楼主发贴辛苦了,谢谢楼主分享!我觉得中国高清电影网是注册对了!
VIP会员免费任意下载本站所有资源!---点击开通
回复

使用道具 举报

懒得打字嘛,点击右侧快捷回复 【右侧内容,后台自定义】
您需要登录后才可以回帖 登录 | 立即注册

本版积分规则

QQ|Archiver|手机版|小黑屋| 中国高清网 |网站地图

GMT+8, 2019-10-24 06:56 , Processed in 0.320018 second(s), 39 queries .

Powered by HDchina X3.4

Copyright 2017-2019©HDchina.All right reserved

返回顶部 联系我们