查看: 14|回复: 0

[喜剧片] 天荒情未了/今生有约 Forever.Young.1992.1080p.AMZN.WEBRip.DDP2.0.x264-JOOP 9.66GB

[复制链接]

 成长值: 2560

级别:资源管理组

注册时间
2017-10-20
最后登录
2019-9-19
听众
1
收听
0
主题
82921
蓝光币
49296 枚
贡献
7249 点
发表于 6 天前 | 显示全部楼层 |阅读模式
天荒情未了/今生有约 Forever.Young.1992.1080p.AMZN.WEBRip.DDP2.0.x264-JOOP 9.66GB-1.png

译  名 天荒情未了 / 今生有约 / 永久年轻 / 青春永驻
片  名 Forever Young
年  代 1992
产  地 美国
类  别 笑剧 / 恋爱 / 科幻 / 冒险
语  言 英语
上映日期 1992-12-11
IMDb评分  6.3/10 from 42050 users
IMDb链接  http://www.imdb.com/title/tt0104291
豆瓣评分 7.5/10 from 1099 users
豆瓣链接 https://movie.douban.com/subject/1294880/
片  长 102 分钟
导  演 Steve Miner
编  剧 J.J. Abrams
主  演 Mel Gibson
       Jamie Lee Curtis
       George Wendt
       Elijah Wood
       Joe Morton


标  签 恋爱 | 美国 | 科幻 | 美国电影 | 梅尔吉布森 | 1992 | 梅尔·吉布森 | MelGibson

简  介  

  故事发生在1939年,丹尼尔(梅尔·吉布森 Mel Gibson 饰)是一位空军飞翔员,一向以来,他都深深爱恋着名叫海伦(Isabel Glasser 饰)的女子,就在丹尼尔决议将心里的豪情公诸于众之时,海伦居然遭受了意外成为了动物人。心碎的丹尼尔找到了研讨冷冻生物学的好友哈里(乔治·温迪特 George Wendt 饰),希望后者可以将自己冷冻,以回避现实。
  令丹尼尔没有想到的是,当他再次展开双眼之时,时候已经奔腾到了1992年,此时的天下同他昏睡之前的天下已然截然分歧。丹尼尔想找哈里,却找到了哈里的女儿,并得知了好友的死讯,与此同时,丹尼尔亦得知海伦早已苏醒,直到本日照旧连结单身一人住在海边的绝壁之上,冲动万分的丹尼尔马不停蹄地赶往彼处,寻觅久违的爱人。
  1. Video
  2. ID                                       : 1
  3. Format                                   : AVC
  4. Format/Info                              : Advanced Video Codec
  5. Format profile                           : <a href="/cdn-cgi/l/email-protection" class="__cf_email__" data-cfemail="bbf3d2dcd3fbf78f">[email protected]</a>
  6. Format settings                          : CABAC / 4 Ref Frames
  7. Format settings, CABAC                   : Yes
  8. Format settings, Reference frames        : 4 frames
  9. Codec ID                                 : V_MPEG4/ISO/AVC
  10. Duration                                 : 1 h 41 min
  11. Bit rate mode                            : Variable
  12. Bit rate                                 : 13.4 Mb/s
  13. Maximum bit rate                         : 15.0 Mb/s
  14. Width                                    : 1 920 pixels
  15. Height                                   : 1 080 pixels
  16. Display aspect ratio                     : 16:9
  17. Frame rate mode                          : Constant
  18. Frame rate                               : 23.976 (24000/1001) FPS
  19. Color space                              : YUV
  20. Chroma subsampling                       : 4:2:0
  21. Bit depth                                : 8 bits
  22. Scan type                                : Progressive
  23. Bits/(Pixel*Frame)                       : 0.269
  24. Stream size                              : 9.50 GiB (98%)
  25. Title                                    : Forever.Young.1992.1080p.WEB-DL.DD2.0.h264-JOOP
  26. Writing library                          : x264 core 148 r2623 d5b2374
  27. Encoding settings                        : cabac=1 / ref=4 / deblock=1:-1:-1 / analyse=0x3:0x133 / me=umh / subme=9 / psy=1 / psy_rd=1.00:0.15 / mixed_ref=1 / me_range=24 / chroma_me=1 / trellis=2 / 8x8dct=1 / cqm=0 / deadzone=21,11 / fast_pskip=1 / chroma_qp_offset=-3 / threads=34 / lookahead_threads=5 / sliced_threads=0 / nr=150 / decimate=1 / interlaced=0 / bluray_compat=0 / constrained_intra=0 / bframes=8 / b_pyramid=2 / b_adapt=2 / b_bias=0 / direct=3 / weightb=1 / open_gop=0 / weightp=2 / keyint=120 / keyint_min=61 / scenecut=0 / intra_refresh=0 / rc_lookahead=120 / rc=crf / mbtree=1 / crf=18.0 / qcomp=0.60 / qpmin=0 / qpmax=69 / qpstep=4 / vbv_maxrate=15000 / vbv_bufsize=31250 / crf_max=0.0 / nal_hrd=vbr / filler=0 / ip_ratio=1.40 / aq=3:1.00
  28. Default                                  : Yes
  29. Forced                                   : No
  30. Color range                              : Limited
  31. Color primaries                          : BT.709
  32. Transfer characteristics                 : BT.709
  33. Matrix coefficients                      : BT.709

  34. Audio
  35. ID                                       : 2
  36. Format                                   : E-AC-3
  37. Format/Info                              : Enhanced AC-3
  38. Commercial name                          : Dolby Digital Plus
  39. Codec ID                                 : A_EAC3
  40. Duration                                 : 1 h 41 min
  41. Bit rate mode                            : Constant
  42. Bit rate                                 : 224 kb/s
  43. Channel(s)                               : 2 channels
  44. Channel layout                           : L R
  45. Sampling rate                            : 48.0 kHz
  46. Frame rate                               : 31.250 FPS (1536 SPF)
  47. Compression mode                         : Lossy
  48. Stream size                              : 163 MiB (2%)
  49. Title                                    : English
  50. Language                                 : English
  51. Service kind                             : Complete Main
  52. Default                                  : Yes
  53. Forced                                   : No

  54. Text
  55. ID                                       : 3
  56. Format                                   : UTF-8
  57. Codec ID                                 : S_TEXT/UTF8
  58. Codec ID/Info                            : UTF-8 Plain Text
  59. Duration                                 : 1 h 39 min
  60. Bit rate                                 : 50 b/s
  61. Count of elements                        : 1662
  62. Stream size                              : 36.8 KiB (0%)
  63. Title                                    : English
  64. Language                                 : English
  65. Default                                  : No
  66. Forced                                   : No
复制代码

天荒情未了/今生有约 Forever.Young.1992.1080p.AMZN.WEBRip.DDP2.0.x264-JOOP 9.66GB-2.png 天荒情未了/今生有约 Forever.Young.1992.1080p.AMZN.WEBRip.DDP2.0.x264-JOOP 9.66GB-3.png 天荒情未了/今生有约 Forever.Young.1992.1080p.AMZN.WEBRip.DDP2.0.x264-JOOP 9.66GB-4.png 天荒情未了/今生有约 Forever.Young.1992.1080p.AMZN.WEBRip.DDP2.0.x264-JOOP 9.66GB-5.png 天荒情未了/今生有约 Forever.Young.1992.1080p.AMZN.WEBRip.DDP2.0.x264-JOOP 9.66GB-6.png 天荒情未了/今生有约 Forever.Young.1992.1080p.AMZN.WEBRip.DDP2.0.x264-JOOP 9.66GB-7.png






VIP会员免费任意下载本站所有资源!---点击开通
回复

使用道具 举报

懒得打字嘛,点击右侧快捷回复 【右侧内容,后台自定义】
您需要登录后才可以回帖 登录 | 立即注册

本版积分规则

QQ|Archiver|手机版|小黑屋| 中国高清网 |网站地图

GMT+8, 2019-9-20 04:49 , Processed in 0.394969 second(s), 39 queries .

Powered by HDchina X3.4

Copyright 2017-2019©HDchina.All right reserved

返回顶部 联系我们