查看: 8|回复: 0

[西部片] 来自科罗拉多的人/火窟鸳鸯 The.Man.from.Colorado.1948.1080p.AMZN.WEBRip.AAC2.0.x264-SbR 7.05GB

[复制链接]

 成长值: 2570

级别:资源管理组

注册时间
2017-10-20
最后登录
2019-9-21
听众
1
收听
0
主题
83009
蓝光币
49621 枚
贡献
7337 点
发表于 7 天前 | 显示全部楼层 |阅读模式
来自科罗拉多的人/火窟鸳鸯 The.Man.from.Colorado.1948.1080p.AMZN.WEBRip.AAC2.0.x264-SbR 7.05GB-1.png

译  名 来自科罗拉多的人 / 火窟鸳鸯
片  名 The Man from Colorado
年  代 1948
产  地 美国
类  别 西部
语  言 英语
上映日期 1948-08-07(瑞典)
IMDb评分  6.6/10 from 1313 users
IMDb链接  http://www.imdb.com/title/tt0041625
豆瓣评分 6.9/10 from 42 users
豆瓣链接 https://movie.douban.com/subject/2155969/
片  长 100分钟
导  演 亨利·莱文 Henry Levin
编  剧 Robert Hardy Andrews / Ben Maddow
主  演 威廉·霍尔登 William Holden
       格伦·福特 Glenn Ford
       艾伦·德鲁 Ellen Drew


标  签 美国 | 西部片 | 西部 | 1948 | 1940s | 威廉·霍尔登 | WilliamHolden | 美国电影

简  介  

  暂无相关剧情先容
  1. Video
  2. ID                                       : 1
  3. Format                                   : AVC
  4. Format/Info                              : Advanced Video Codec
  5. Format profile                           : <a href="/cdn-cgi/l/email-protection" class="__cf_email__" data-cfemail="7139181619313d45">[email protected]</a>
  6. Format settings                          : CABAC / 4 Ref Frames
  7. Format settings, CABAC                   : Yes
  8. Format settings, Reference frames        : 4 frames
  9. Codec ID                                 : V_MPEG4/ISO/AVC
  10. Duration                                 : 1 h 38 min
  11. Bit rate mode                            : Variable
  12. Bit rate                                 : 10.2 Mb/s
  13. Maximum bit rate                         : 15.0 Mb/s
  14. Width                                    : 1 440 pixels
  15. Height                                   : 1 080 pixels
  16. Display aspect ratio                     : 4:3
  17. Frame rate mode                          : Constant
  18. Frame rate                               : 23.976 (24000/1001) FPS
  19. Color space                              : YUV
  20. Chroma subsampling                       : 4:2:0
  21. Bit depth                                : 8 bits
  22. Scan type                                : Progressive
  23. Bits/(Pixel*Frame)                       : 0.272
  24. Stream size                              : 6.96 GiB (99%)
  25. Writing library                          : x264 core 148 r2623 d5b2374
  26. Encoding settings                        : cabac=1 / ref=4 / deblock=1:-1:-1 / analyse=0x3:0x133 / me=umh / subme=9 / psy=1 / psy_rd=1.00:0.15 / mixed_ref=1 / me_range=24 / chroma_me=1 / trellis=2 / 8x8dct=1 / cqm=0 / deadzone=21,11 / fast_pskip=1 / chroma_qp_offset=-3 / threads=34 / lookahead_threads=5 / sliced_threads=0 / nr=150 / decimate=1 / interlaced=0 / bluray_compat=0 / constrained_intra=0 / bframes=8 / b_pyramid=2 / b_adapt=2 / b_bias=0 / direct=3 / weightb=1 / open_gop=0 / weightp=2 / keyint=120 / keyint_min=61 / scenecut=0 / intra_refresh=0 / rc_lookahead=120 / rc=crf / mbtree=1 / crf=18.0 / qcomp=0.60 / qpmin=0 / qpmax=69 / qpstep=4 / vbv_maxrate=15000 / vbv_bufsize=31250 / crf_max=0.0 / nal_hrd=vbr / filler=0 / ip_ratio=1.40 / aq=3:1.00
  27. Language                                 : English
  28. Default                                  : Yes
  29. Forced                                   : No
  30. Color range                              : Limited
  31. Color primaries                          : BT.709
  32. Transfer characteristics                 : BT.709
  33. Matrix coefficients                      : BT.709

  34. Audio
  35. ID                                       : 2
  36. Format                                   : AAC LC
  37. Format/Info                              : Advanced Audio Codec Low Complexity
  38. Codec ID                                 : A_AAC-2
  39. Duration                                 : 1 h 38 min
  40. Bit rate                                 : 125 kb/s
  41. Channel(s)                               : 2 channels
  42. Channel layout                           : L R
  43. Sampling rate                            : 48.0 kHz
  44. Frame rate                               : 46.875 FPS (1024 SPF)
  45. Compression mode                         : Lossy
  46. Stream size                              : 88.0 MiB (1%)
  47. Language                                 : English
  48. Default                                  : Yes
  49. Forced                                   : No

  50. Text #1
  51. ID                                       : 3
  52. Format                                   : UTF-8
  53. Codec ID                                 : S_TEXT/UTF8
  54. Codec ID/Info                            : UTF-8 Plain Text
  55. Duration                                 : 1 h 36 min
  56. Bit rate                                 : 52 b/s
  57. Count of elements                        : 941
  58. Stream size                              : 37.2 KiB (0%)
  59. Language                                 : English
  60. Default                                  : No
  61. Forced                                   : No

  62. Text #2
  63. ID                                       : 4
  64. Format                                   : UTF-8
  65. Codec ID                                 : S_TEXT/UTF8
  66. Codec ID/Info                            : UTF-8 Plain Text
  67. Duration                                 : 1 h 37 min
  68. Bit rate                                 : 55 b/s
  69. Count of elements                        : 1303
  70. Stream size                              : 39.5 KiB (0%)
  71. Title                                    : SDH
  72. Language                                 : English
  73. Default                                  : No
  74. Forced                                   : No
复制代码

来自科罗拉多的人/火窟鸳鸯 The.Man.from.Colorado.1948.1080p.AMZN.WEBRip.AAC2.0.x264-SbR 7.05GB-2.png 来自科罗拉多的人/火窟鸳鸯 The.Man.from.Colorado.1948.1080p.AMZN.WEBRip.AAC2.0.x264-SbR 7.05GB-3.png 03389198603572575763_medium.png 来自科罗拉多的人/火窟鸳鸯 The.Man.from.Colorado.1948.1080p.AMZN.WEBRip.AAC2.0.x264-SbR 7.05GB-5.png 来自科罗拉多的人/火窟鸳鸯 The.Man.from.Colorado.1948.1080p.AMZN.WEBRip.AAC2.0.x264-SbR 7.05GB-6.png 来自科罗拉多的人/火窟鸳鸯 The.Man.from.Colorado.1948.1080p.AMZN.WEBRip.AAC2.0.x264-SbR 7.05GB-7.png






VIP会员免费任意下载本站所有资源!---点击开通
回复

使用道具 举报

懒得打字嘛,点击右侧快捷回复 【右侧内容,后台自定义】
您需要登录后才可以回帖 登录 | 立即注册

本版积分规则

QQ|Archiver|手机版|小黑屋| 中国高清网 |网站地图

GMT+8, 2019-9-21 14:42 , Processed in 0.636291 second(s), 39 queries .

Powered by HDchina X3.4

Copyright 2017-2019©HDchina.All right reserved

返回顶部 联系我们