查看: 45|回复: 1

[剧情片] 德国之秋 Germany.In.Autumn.1978.GERMAN.1080p.BluRay.x264.DTS-FGT 10.62GB

[复制链接]

 成长值: 2570

级别:资源管理组

注册时间
2017-10-20
最后登录
2019-9-21
听众
1
收听
0
主题
83009
蓝光币
49631 枚
贡献
7337 点
发表于 2019-9-13 20:49:49 | 显示全部楼层 |阅读模式
德国之秋 Germany.In.Autumn.1978.GERMAN.1080p.BluRay.x264.DTS-FGT 10.62GB-1.png

译  名 德国之秋 / Germany in Autumn
片  名 Deutschland im Herbst
年  代 1978
产  地 西德
类  别 剧情 / 记载片
语  言 德语
上映日期 1978-03-17
IMDb评分  6.9/10 from 1065 users
IMDb链接  http://www.imdb.com/title/tt0077427
豆瓣评分 7.5/10 from 257 users
豆瓣链接 https://movie.douban.com/subject/1419212/
片  长 123 分钟
导  演 亚历山大·克鲁格 Alexander Kluge / 沃尔克·施隆多夫 Volker Schl?ndorff / 赖纳·维尔纳·法斯宾德 Rainer Werner Fassbinder / Alf Brustellin / Bernhard Sinkel / Katja Rupé / Hans Peter Cloos / 爱德嘉·莱兹 Edgar Reitz / Maximiliane Mainka / Peter Schubert
编  剧 Alexander Kluge / Volker Schl?ndorff / Rainer Werner Fassbinder / Alf Brustellin / Bernhard Sinkel / Katja Rupé / Hans Peter Cloos / Edgar Reitz / Heinrich B?ll / Peter Steinbach
主  演 Hannelore Hoger
       Helmut Griem
       Katja Rupé
       Vadim Glowna
       Angela Winkler
       Heinz Bennent
       Mario Adorf
       Manfred Zapatka
       Enno Patalas


标  签 德国 | 法斯宾德 | 德国电影 | 记载片 | 1970s | 政治 | 短片集 | Fassbinder

简  介  

  Germany in Autumn does not have a plot per se; it mixes documentary footage, along with standard movie scenes, to give the audience the mood of Germany during the late 1970s. The movie covers the two month time period during 1977 when a businessman was kidnapped, and later murdered, by the left-wing terrorists known as the RAF-Rote Armee Fraktion (Red Army Faction). The businessman had been kidnapped in an effort to secure the release of the orginal leaders of the RAF, also known as the Baader-Meinhof gang. When the kidnapping effort and a plane hijacking effort failed, the three most prominent leaders of the RAF, Andreas Baader, Gudrun Enslin, and Jean-Carl Raspe, all committed suicide in prison. It has become an article of faith within the left-wing community that these three were actually murdered by the state. The movie has several vignettes, including an extended set of scenes with the famous director Rainer Werner Fassbinder discussing his feelings about Germany's political situation at the time. Fassbinder's scenes almost seem to be candid documentary footage, but aren't. Other scenes include documentary footage of the joint funeral of Baader, Enslin, and Raspe.

获奖情况  

  第28届柏林国际电影节(1978)
  金熊奖 最好影片(提名) Peter Schubert / Alf Brustellin / Hans Peter Cloos / 爱德嘉·莱兹 / Beate Mainka-Jellinghaus / Bernhard Sinkel / Maximiliane Mainka / 赖纳·维尔纳·法斯宾德 / 卡特娅·卢佩 / 沃尔克·施隆多夫 / 亚历山大·克鲁格
  银熊奖 出格表彰
  1. Video
  2. ID                                       : 1
  3. Format                                   : AVC
  4. Format/Info                              : Advanced Video Codec
  5. Format profile                           : <a href="/cdn-cgi/l/email-protection" class="__cf_email__" data-cfemail="6d25040a052d2159435c">[email protected]</a>
  6. Format settings                          : CABAC / 4 Ref Frames
  7. Format settings, CABAC                   : Yes
  8. Format settings, Reference frames        : 4 frames
  9. Codec ID                                 : V_MPEG4/ISO/AVC
  10. Duration                                 : 2 h 3 min
  11. Bit rate                                 : 11.5 Mb/s
  12. Width                                    : 1 792 pixels
  13. Height                                   : 1 080 pixels
  14. Display aspect ratio                     : 5:3
  15. Frame rate mode                          : Constant
  16. Frame rate                               : 24.000 FPS
  17. Color space                              : YUV
  18. Chroma subsampling                       : 4:2:0
  19. Bit depth                                : 8 bits
  20. Scan type                                : Progressive
  21. Bits/(Pixel*Frame)                       : 0.248
  22. Stream size                              : 9.95 GiB (94%)
  23. Title                                    : Germany.In.Autumn.1978.GERMAN.1080p.BluRay.x264.DTS-FGT
  24. Writing library                          : x264 core 148 r2795M aaa9aa8
  25. Encoding settings                        : cabac=1 / ref=4 / deblock=1:-2:-2 / analyse=0x3:0x113 / me=umh / subme=9 / psy=1 / psy_rd=1.00:0.15 / mixed_ref=1 / me_range=16 / chroma_me=1 / trellis=2 / 8x8dct=1 / cqm=0 / deadzone=21,11 / fast_pskip=1 / chroma_qp_offset=-3 / threads=24 / lookahead_threads=3 / sliced_threads=0 / nr=0 / decimate=1 / interlaced=0 / bluray_compat=0 / constrained_intra=0 / bframes=3 / b_pyramid=2 / b_adapt=1 / b_bias=0 / direct=3 / weightb=1 / open_gop=0 / weightp=2 / keyint=250 / keyint_min=25 / scenecut=40 / intra_refresh=0 / rc_lookahead=50 / rc=2pass / mbtree=1 / bitrate=11500 / ratetol=1.0 / qcomp=0.60 / qpmin=0 / qpmax=69 / qpstep=4 / cplxblur=20.0 / qblur=0.5 / vbv_maxrate=31250 / vbv_bufsize=31250 / nal_hrd=none / filler=0 / ip_ratio=1.40 / aq=1:1.00
  26. Language                                 : German
  27. Default                                  : Yes
  28. Forced                                   : No

  29. Audio
  30. ID                                       : 2
  31. Format                                   : DTS
  32. Format/Info                              : Digital Theater Systems
  33. Codec ID                                 : A_DTS
  34. Duration                                 : 2 h 3 min
  35. Bit rate mode                            : Constant
  36. Bit rate                                 : 768 kb/s
  37. Channel(s)                               : 2 channels
  38. Channel layout                           : L R
  39. Sampling rate                            : 48.0 kHz
  40. Frame rate                               : 93.750 FPS (512 SPF)
  41. Bit depth                                : 24 bits
  42. Compression mode                         : Lossy
  43. Stream size                              : 681 MiB (6%)
  44. Title                                    : Germany.In.Autumn.1978.GERMAN.1080p.BluRay.x264.DTS-FGT
  45. Language                                 : German
  46. Default                                  : Yes
  47. Forced                                   : No

  48. Text
  49. ID                                       : 3
  50. Format                                   : UTF-8
  51. Codec ID                                 : S_TEXT/UTF8
  52. Codec ID/Info                            : UTF-8 Plain Text
  53. Duration                                 : 2 h 2 min
  54. Bit rate                                 : 45 b/s
  55. Count of elements                        : 1066
  56. Stream size                              : 40.8 KiB (0%)
  57. Language                                 : English
  58. Default                                  : Yes
  59. Forced                                   : No

  60. Menu
  61. 00:00:00.000                             : en:Chapter 1
  62. 00:10:35.333                             : en:Chapter 2
  63. 00:20:41.708                             : en:Chapter 3
  64. 00:32:43.833                             : en:Chapter 4
  65. 00:41:33.458                             : en:Chapter 5
  66. 00:50:19.500                             : en:Chapter 6
  67. 00:59:38.291                             : en:Chapter 7
  68. 01:10:06.625                             : en:Chapter 8
  69. 01:18:52.041                             : en:Chapter 9
  70. 01:32:13.541                             : en:Chapter 10
  71. 01:42:38.791                             : en:Chapter 11
  72. 01:52:39.208                             : en:Chapter 12
复制代码

德国之秋 Germany.In.Autumn.1978.GERMAN.1080p.BluRay.x264.DTS-FGT 10.62GB-2.png 德国之秋 Germany.In.Autumn.1978.GERMAN.1080p.BluRay.x264.DTS-FGT 10.62GB-3.png






VIP会员免费任意下载本站所有资源!---点击开通
回复

使用道具 举报

级别:荣升主角 Lv.5

注册时间
2019-1-23
最后登录
2019-9-21
听众
14
收听
0
主题
0
蓝光币
686 枚
贡献
0 点
发表于 7 天前 | 显示全部楼层

楼主太厉害了!楼主,电影应该很好看我觉得中国高清电影网真是个好地方!
VIP会员免费任意下载本站所有资源!---点击开通
回复

使用道具 举报

懒得打字嘛,点击右侧快捷回复 【右侧内容,后台自定义】
您需要登录后才可以回帖 登录 | 立即注册

本版积分规则

QQ|Archiver|手机版|小黑屋| 中国高清网 |网站地图

GMT+8, 2019-9-21 14:57 , Processed in 0.407159 second(s), 39 queries .

Powered by HDchina X3.4

Copyright 2017-2019©HDchina.All right reserved

返回顶部 联系我们