查看: 14|回复: 0

[恐怖片] 无惧之虎 Tigers.Are.Not.Afraid.2017.SUBBED.1080p.AMZN.WEBRip.DDP2.0.x264-monkee 2.33GB

[复制链接]

 成长值: 2570

级别:资源管理组

注册时间
2017-10-20
最后登录
2019-9-21
听众
1
收听
0
主题
83009
蓝光币
49621 枚
贡献
7337 点
发表于 2019-9-13 20:45:40 | 显示全部楼层 |阅读模式
无惧之虎 Tigers.Are.Not.Afraid.2017.SUBBED.1080p.AMZN.WEBRip.DDP2.0.x264-monkee 2.33GB-1.png

译  名 无惧之虎 / Tigers Are Not Afraid / 恶童无惧
片  名 Vuelven
年  代 2017
产  地 墨西哥
类  别 可骇 / 奇异
语  言 西班牙语
上映日期 2017-09-24(奥斯汀奇异电影节) / 2017-11-02(墨西哥)
IMDb评分  7.2/10 from 1326 users
IMDb链接  http://www.imdb.com/title/tt4823434
豆瓣评分 6.2/10 from 132 users
豆瓣链接 https://movie.douban.com/subject/27179696/
片  长 83分钟
导  演 伊萨·洛佩兹 Issa López
编  剧 Issa López
主  演 Paola Lara
       Hanssel Casillas
       Rodrigo Cortes
       Ianis Guerrero
       Tenoch Huerta
       Juan Ramón López


标  签 墨西哥 | 奇异 | 可骇 | 2017 | 长大 | 惊悚 | 悬疑 | 西班牙

简  介  

  某個槍聲高文的午後,小女孩艾斯德蕾雅獨自返家,不僅苦等不回相依為命的母親,還開始見到一連串的異象。在恐懼驅使下,她離開了變調的家,踏上冰冷的街頭,被迫加入少年幫派以尋求食品與庇護。但是,全国沒有白吃的午饭,她的第一個任務,就是拿著偷來的手槍,闖入豪宅去謀殺一位凶惡的毒梟爪牙??。墨西哥導演伊莎羅培茲以獨到女性視角,探討連年毒品戰爭後被疏忽的兒童問題。將寫實社會布景融合魔幻鬼魅風格,精釀闇黑殘酷暴力童話,開啟毒戰題材及成長電影新頁,堪稱拉美版《蒼蠅王》。上映至今不僅爛番茄網站滿分好評居高不下,《水底情深》金獎名導吉勒摩戴托羅更欽點為個人年度十大,連可骇小說泰斗史蒂芬金都盛讚:「才看兩分鐘,我就落入了這部電影的詛咒」。
  1. Video
  2. ID                                       : 1
  3. Format                                   : AVC
  4. Format/Info                              : Advanced Video Codec
  5. Format profile                           : <a href="/cdn-cgi/l/email-protection" class="__cf_email__" data-cfemail="5a12333d321a166e">[email protected]</a>
  6. Format settings                          : CABAC / 4 Ref Frames
  7. Format settings, CABAC                   : Yes
  8. Format settings, Reference frames        : 4 frames
  9. Codec ID                                 : V_MPEG4/ISO/AVC
  10. Duration                                 : 1 h 23 min
  11. Bit rate mode                            : Constant
  12. Bit rate                                 : 3 746 kb/s
  13. Nominal bit rate                         : 10 000 kb/s
  14. Width                                    : 1 920 pixels
  15. Height                                   : 1 080 pixels
  16. Display aspect ratio                     : 16:9
  17. Frame rate mode                          : Constant
  18. Frame rate                               : 23.976 (24000/1001) FPS
  19. Color space                              : YUV
  20. Chroma subsampling                       : 4:2:0
  21. Bit depth                                : 8 bits
  22. Scan type                                : Progressive
  23. Bits/(Pixel*Frame)                       : 0.075
  24. Stream size                              : 2.19 GiB (94%)
  25. Default                                  : Yes
  26. Forced                                   : No
  27. Color range                              : Limited
  28. Color primaries                          : BT.709
  29. Transfer characteristics                 : BT.709
  30. Matrix coefficients                      : BT.709

  31. Audio
  32. ID                                       : 2
  33. Format                                   : E-AC-3
  34. Format/Info                              : Enhanced AC-3
  35. Commercial name                          : Dolby Digital Plus
  36. Codec ID                                 : A_EAC3
  37. Duration                                 : 1 h 23 min
  38. Bit rate mode                            : Constant
  39. Bit rate                                 : 224 kb/s
  40. Channel(s)                               : 2 channels
  41. Channel layout                           : L R
  42. Sampling rate                            : 48.0 kHz
  43. Frame rate                               : 31.250 FPS (1536 SPF)
  44. Compression mode                         : Lossy
  45. Stream size                              : 134 MiB (6%)
  46. Service kind                             : Complete Main
  47. Default                                  : Yes
  48. Forced                                   : No
复制代码

无惧之虎 Tigers.Are.Not.Afraid.2017.SUBBED.1080p.AMZN.WEBRip.DDP2.0.x264-monkee 2.33GB-2.png 无惧之虎 Tigers.Are.Not.Afraid.2017.SUBBED.1080p.AMZN.WEBRip.DDP2.0.x264-monkee 2.33GB-3.png 无惧之虎 Tigers.Are.Not.Afraid.2017.SUBBED.1080p.AMZN.WEBRip.DDP2.0.x264-monkee 2.33GB-4.png






VIP会员免费任意下载本站所有资源!---点击开通
回复

使用道具 举报

懒得打字嘛,点击右侧快捷回复 【右侧内容,后台自定义】
您需要登录后才可以回帖 登录 | 立即注册

本版积分规则

QQ|Archiver|手机版|小黑屋| 中国高清网 |网站地图

GMT+8, 2019-9-21 14:42 , Processed in 0.540035 second(s), 39 queries .

Powered by HDchina X3.4

Copyright 2017-2019©HDchina.All right reserved

返回顶部 联系我们