查看: 22|回复: 0

[喜剧片] 女孩我最高/乔蒂的烦恼 Tall.Girl.2019.1080p.NF.WEBRip.DDP5.1.x264-CM 3.17GB

[复制链接]

 成长值: 2570

级别:资源管理组

注册时间
2017-10-20
最后登录
2019-9-21
听众
1
收听
0
主题
83026
蓝光币
49759 枚
贡献
7354 点
发表于 2019-9-13 20:42:57 | 显示全部楼层 |阅读模式
女孩我最高/乔蒂的懊恼 Tall.Girl.2019.1080p.NF.WEBRip.DDP5.1.x264-CM 3.17GB-1.png

译  名 女孩我最高 / 乔蒂的懊恼 / 爱有六呎高 / 高个女孩
片  名 Tall Girl
年  代 2019
产  地 美国
类  别 笑剧
语  言 英语
上映日期 2019-09-13(美国)
IMDb链接  http://www.imdb.com/title/tt9252508
豆瓣评分 0/10 from 0 users
豆瓣链接 https://movie.douban.com/subject/33397766/
片  长 101分钟
导  演 恩辛哈·斯图尔特 Nzingha Stewart
编  剧 萨姆·沃尔夫森 Sam Wolfson
主  演 安吉拉·金赛 Angela Kinsey
       斯蒂夫·扎恩 Steve Zahn
       帕里斯·贝尔克 Paris Berelc
       塞布丽娜·卡彭特 Sabrina Carpenter
       格里芬·格鲁克 Griffin Gluck
       艾娃·米歇尔 Ava Michelle
       卢克·艾斯纳 Luke Eisner
       杰森·罗格尔 Jason Rogel
       特里纳·拉法尔格 Trina LaFargue
       格拉伦·布莱恩特·班克斯 Gralen Bryant Banks
       托尼亚·马尔多纳多 Tonya Maldonado
       Dana Abercrombie
       Amy Le
       Candi Brooks
       Kelly Murtagh
       Tracy Brotherton
       Conway Solomon
       Anjelika Washington
       Roman Armstrong
       Shane Guilbeau
       Todd Nasca
       Pride Grinn
       Christopher Paul Horne
       Gordon Dexheimer


标  签 青春 | Netflix | 笑剧 | 校园 | 美国 | 恋爱 | 2019 | 电影

简  介  

  乔蒂(艾娃·米歇尔饰)一向是黉舍里个子最高的女孩,但她对此事一向感应不安闲。16 年里,乔蒂一向懒懒惰散地生活,被同学们讽刺,直到她碰见了斯蒂格(卢克·艾斯纳饰)。斯蒂格是一位看似完善的瑞典留门生,个子甚至比乔蒂还高。乔蒂的新工具给她的生活带来了天翻覆地的变化,而且使她堕入了一段使人惊奇的三角恋,但在两位好友(格里芬·格鲁克和安杰利卡·华盛顿饰)和选美皇后姐姐哈珀(塞布丽娜·卡彭特饰)的帮助下,乔蒂意想到,自己远比表面带给她的不服安感更强大。《乔蒂的懊恼》是导演恩辛哈·斯图尔特的首部剧情片,报告了关于找回自傲、不再懒惰、重新抖擞的长大故事,既暖心又诙谐。
  1. Video
  2. ID                                       : 1
  3. Format                                   : AVC
  4. Format/Info                              : Advanced Video Codec
  5. Format profile                           : <a href="/cdn-cgi/l/email-protection" class="__cf_email__" data-cfemail="9dd0fcf4f3ddd1a9">[email protected]</a>
  6. Format settings                          : CABAC / 3 Ref Frames
  7. Format settings, CABAC                   : Yes
  8. Format settings, Reference frames        : 3 frames
  9. Codec ID                                 : V_MPEG4/ISO/AVC
  10. Duration                                 : 1 h 42 min
  11. Bit rate mode                            : Variable
  12. Bit rate                                 : 3 830 kb/s
  13. Maximum bit rate                         : 5 745 kb/s
  14. Width                                    : 1 920 pixels
  15. Height                                   : 1 080 pixels
  16. Display aspect ratio                     : 16:9
  17. Frame rate mode                          : Constant
  18. Frame rate                               : 23.976 (24000/1001) FPS
  19. Color space                              : YUV
  20. Chroma subsampling                       : 4:2:0
  21. Bit depth                                : 8 bits
  22. Scan type                                : Progressive
  23. Bits/(Pixel*Frame)                       : 0.077
  24. Stream size                              : 2.71 GiB (85%)
  25. Writing library                          : x264 core 148 r2715 7e75228
  26. Encoding settings                        : cabac=1 / ref=3 / deblock=1:0:0 / analyse=0x1:0x111 / me=umh / subme=10 / psy=1 / psy_rd=1.00:0.00 / mixed_ref=1 / me_range=24 / chroma_me=1 / trellis=2 / 8x8dct=0 / cqm=0 / deadzone=21,11 / fast_pskip=1 / chroma_qp_offset=-2 / threads=8 / lookahead_threads=1 / sliced_threads=0 / nr=0 / decimate=1 / interlaced=0 / bluray_compat=0 / stitchable=1 / constrained_intra=0 / bframes=2 / b_pyramid=0 / b_adapt=2 / b_bias=0 / direct=3 / weightb=1 / open_gop=0 / weightp=2 / keyint=250 / keyint_min=23 / scenecut=0 / intra_refresh=0 / rc_lookahead=48 / rc=2pass / mbtree=1 / bitrate=3830 / ratetol=1.0 / qcomp=0.50 / qpmin=6 / qpmax=51 / qpstep=4 / cplxblur=20.0 / qblur=0.5 / vbv_maxrate=5745 / vbv_bufsize=7660 / nal_hrd=vbr / filler=0 / ip_ratio=1.40 / aq=1:1.00
  27. Default                                  : Yes
  28. Forced                                   : No

  29. Audio
  30. ID                                       : 2
  31. Format                                   : E-AC-3
  32. Format/Info                              : Enhanced AC-3
  33. Commercial name                          : Dolby Digital Plus
  34. Codec ID                                 : A_EAC3
  35. Duration                                 : 1 h 42 min
  36. Bit rate mode                            : Constant
  37. Bit rate                                 : 640 kb/s
  38. Channel(s)                               : 6 channels
  39. Channel layout                           : L R C LFE Ls Rs
  40. Sampling rate                            : 48.0 kHz
  41. Frame rate                               : 31.250 FPS (1536 SPF)
  42. Compression mode                         : Lossy
  43. Stream size                              : 470 MiB (14%)
  44. Language                                 : English
  45. Service kind                             : Complete Main
  46. Default                                  : Yes
  47. Forced                                   : No

  48. Text
  49. ID                                       : 3
  50. Format                                   : UTF-8
  51. Codec ID                                 : S_TEXT/UTF8
  52. Codec ID/Info                            : UTF-8 Plain Text
  53. Duration                                 : 1 h 40 min
  54. Bit rate                                 : 84 b/s
  55. Count of elements                        : 1748
  56. Stream size                              : 62.2 KiB (0%)
  57. Title                                    : English
  58. Language                                 : English
  59. Default                                  : Yes
  60. Forced                                   : No
复制代码

女孩我最高/乔蒂的懊恼 Tall.Girl.2019.1080p.NF.WEBRip.DDP5.1.x264-CM 3.17GB-2.png 女孩我最高/乔蒂的懊恼 Tall.Girl.2019.1080p.NF.WEBRip.DDP5.1.x264-CM 3.17GB-3.png 女孩我最高/乔蒂的懊恼 Tall.Girl.2019.1080p.NF.WEBRip.DDP5.1.x264-CM 3.17GB-4.png






VIP会员免费任意下载本站所有资源!---点击开通
回复

使用道具 举报

懒得打字嘛,点击右侧快捷回复 【右侧内容,后台自定义】
您需要登录后才可以回帖 登录 | 立即注册

本版积分规则

QQ|Archiver|手机版|小黑屋| 中国高清网 |网站地图

GMT+8, 2019-9-21 21:03 , Processed in 0.459854 second(s), 39 queries .

Powered by HDchina X3.4

Copyright 2017-2019©HDchina.All right reserved

返回顶部 联系我们