查看: 20|回复: 0

[喜剧片] 我的A级秘密/你能守口如瓶吗? Can.You.Keep.a.Secret.2019.1080p.AMZN.WEBRip.DDP5.1.x264-NTG 6.06GB

[复制链接]

 成长值: 2570

级别:资源管理组

注册时间
2017-10-20
最后登录
2019-9-21
听众
1
收听
0
主题
83009
蓝光币
49635 枚
贡献
7337 点
发表于 2019-9-13 18:17:10 | 显示全部楼层 |阅读模式
我的A级奥秘/你能缄舌闭口吗? Can.You.Keep.a.Secret.2019.1080p.AMZN.WEBRip.DDP5.1.x264-NTG 6.06GB-1.png

译  名 我的A级奥秘 / 你能缄舌闭口吗?
片  名 Can You Keep a Secret?
年  代 2019
产  地 美国
类  别 笑剧 / 恋爱
上映日期 2019-09-13(美国)
IMDb评分  6.8/10 from 75 users
IMDb链接  http://www.imdb.com/title/tt8707922
豆瓣评分 0/10 from 0 users
豆瓣链接 https://movie.douban.com/subject/30283389/
导  演 Elise Duran
编  剧 彼得·哈钦斯 Peter Hutchings / 索菲·金塞拉 Sophie Kinsella
主  演 亚历珊德拉·达达里奥 Alexandra Daddario
       泰勒·霍奇林 Tyler Hoechlin
       金可·格伦 Kimiko Glenn
       拉弗恩·考克斯 Laverne Cox
       苏妮特·玛尼 Sunita Mani
       贾达·弗雷德兰德 Judah Friedlander
       凯特·伊斯顿 Kate Easton
       Sam Asghari
       Bobby Tisdale
       Courtney Gonzalez
       Ashlyn Alessi
       David Ebert
       Lexa Hayes
       Chris LeMonda
       Yedoye Travis
       Kortnee Rumph


标  签 剧情 | 2019 | 恋爱笑剧 | 恋爱 | 笑剧 | 美国电影 | 美国 | 泰勒·霍奇林

简  介  

  亚历桑德拉·达达里奥(《真探》《末日崩塌》)将主演新片《我的A级奥秘》,并任履行建造人。改编自索菲·金塞拉所著、全球卖出4000万本的同名畅销小说,报告一个轻松、脱线、心爱的恋爱故事:怀着奥秘的女孩艾玛·科里甘坐飞机遇上大波动,她以为活不了了,便对邻座英俊的陌生人说出了自己的奥秘。但后来,她第一次看到自己公司那年轻、让人捉摸不定的CEO杰克·哈珀,才发现他就是飞机上的陌生人。现在他晓得了艾玛全数那些让她为难不已的奥秘/生活细节……
  1. Video
  2. ID                                       : 1
  3. Format                                   : AVC
  4. Format/Info                              : Advanced Video Codec
  5. Format profile                           : <a href="/cdn-cgi/l/email-protection" class="__cf_email__" data-cfemail="652d0c020d252951">[email protected]</a>
  6. Format settings                          : CABAC / 4 Ref Frames
  7. Format settings, CABAC                   : Yes
  8. Format settings, Reference frames        : 4 frames
  9. Codec ID                                 : V_MPEG4/ISO/AVC
  10. Duration                                 : 1 h 34 min
  11. Bit rate mode                            : Constant
  12. Bit rate                                 : 8 522 kb/s
  13. Nominal bit rate                         : 10 000 kb/s
  14. Width                                    : 1 920 pixels
  15. Height                                   : 1 080 pixels
  16. Display aspect ratio                     : 16:9
  17. Frame rate mode                          : Constant
  18. Frame rate                               : 23.976 (24000/1001) FPS
  19. Color space                              : YUV
  20. Chroma subsampling                       : 4:2:0
  21. Bit depth                                : 8 bits
  22. Scan type                                : Progressive
  23. Bits/(Pixel*Frame)                       : 0.171
  24. Stream size                              : 5.63 GiB (93%)
  25. Default                                  : Yes
  26. Forced                                   : No
  27. Color range                              : Limited
  28. Color primaries                          : BT.709
  29. Transfer characteristics                 : BT.709
  30. Matrix coefficients                      : BT.709

  31. Audio
  32. ID                                       : 2
  33. Format                                   : E-AC-3
  34. Format/Info                              : Enhanced AC-3
  35. Commercial name                          : Dolby Digital Plus
  36. Codec ID                                 : A_EAC3
  37. Duration                                 : 1 h 34 min
  38. Bit rate mode                            : Constant
  39. Bit rate                                 : 640 kb/s
  40. Channel(s)                               : 6 channels
  41. Channel layout                           : L R C LFE Ls Rs
  42. Sampling rate                            : 48.0 kHz
  43. Frame rate                               : 31.250 FPS (1536 SPF)
  44. Compression mode                         : Lossy
  45. Stream size                              : 433 MiB (7%)
  46. Language                                 : English
  47. Service kind                             : Complete Main
  48. Default                                  : Yes
  49. Forced                                   : No

  50. Text #1
  51. ID                                       : 3
  52. Format                                   : UTF-8
  53. Codec ID                                 : S_TEXT/UTF8
  54. Codec ID/Info                            : UTF-8 Plain Text
  55. Duration                                 : 1 h 32 min
  56. Bit rate                                 : 77 b/s
  57. Count of elements                        : 1936
  58. Stream size                              : 52.6 KiB (0%)
  59. Language                                 : English
  60. Default                                  : No
  61. Forced                                   : No

  62. Text #2
  63. ID                                       : 4
  64. Format                                   : UTF-8
  65. Codec ID                                 : S_TEXT/UTF8
  66. Codec ID/Info                            : UTF-8 Plain Text
  67. Duration                                 : 1 h 32 min
  68. Bit rate                                 : 89 b/s
  69. Count of elements                        : 2165
  70. Stream size                              : 60.7 KiB (0%)
  71. Title                                    : SDH
  72. Language                                 : English
  73. Default                                  : No
  74. Forced                                   : No
复制代码

我的A级奥秘/你能缄舌闭口吗? Can.You.Keep.a.Secret.2019.1080p.AMZN.WEBRip.DDP5.1.x264-NTG 6.06GB-2.png 我的A级奥秘/你能缄舌闭口吗? Can.You.Keep.a.Secret.2019.1080p.AMZN.WEBRip.DDP5.1.x264-NTG 6.06GB-3.png 我的A级奥秘/你能缄舌闭口吗? Can.You.Keep.a.Secret.2019.1080p.AMZN.WEBRip.DDP5.1.x264-NTG 6.06GB-4.png






VIP会员免费任意下载本站所有资源!---点击开通
回复

使用道具 举报

懒得打字嘛,点击右侧快捷回复 【右侧内容,后台自定义】
您需要登录后才可以回帖 登录 | 立即注册

本版积分规则

QQ|Archiver|手机版|小黑屋| 中国高清网 |网站地图

GMT+8, 2019-9-21 15:10 , Processed in 0.548905 second(s), 39 queries .

Powered by HDchina X3.4

Copyright 2017-2019©HDchina.All right reserved

返回顶部 联系我们