查看: 10|回复: 0

[纪录片] 推销员/社会中坚 Salesman.1969.1080p.AMZN.WEBRip.DDP2.0.x264-SbR 9.55GB

[复制链接]

 成长值: 2570

级别:资源管理组

注册时间
2017-10-20
最后登录
2019-9-21
听众
1
收听
0
主题
83009
蓝光币
49639 枚
贡献
7337 点
发表于 2019-9-13 18:10:51 | 显示全部楼层 |阅读模式
倾销员/社会中坚 Salesman.1969.1080p.AMZN.WEBRip.DDP2.0.x264-SbR 9.55GB-1.png

译  名 倾销员 / 社会中坚
片  名 Salesman
年  代 1969
产  地 美国
类  别 记载片
语  言 英语
上映日期 1969-04-17(美国)
IMDb评分  7.8/10 from 4245 users
IMDb链接  http://www.imdb.com/title/tt0064921
豆瓣评分 7.9/10 from 1354 users
豆瓣链接 https://movie.douban.com/subject/1395036/
片  长 85分钟
导  演 Albert Maysles / David Maysles / Charlotte Zwerin
主  演 Paul Brennan
       Charles McDevitt
       James Baker
       Raymond Martos


标  签 记载片 | 美国 | 梅索斯兄弟 | 美国电影 | 1960s | Maysles | documentary | 紀錄片

简  介  

  本片追踪四个“美中圣经公司”的销售代表在波士顿与佛罗里达销售地区工作的情形。保罗是本片的焦点,他挣扎于保存的两难地步,却一向布满悲观,应用各类或哄或骗的技能来倾销《圣经》。
  1. Video
  2. ID                                       : 1
  3. Format                                   : AVC
  4. Format/Info                              : Advanced Video Codec
  5. Format profile                           : <a href="/cdn-cgi/l/email-protection" class="__cf_email__" data-cfemail="5b13323c331b176f">[email protected]</a>
  6. Format settings                          : CABAC / 4 Ref Frames
  7. Format settings, CABAC                   : Yes
  8. Format settings, Reference frames        : 4 frames
  9. Codec ID                                 : V_MPEG4/ISO/AVC
  10. Duration                                 : 1 h 31 min
  11. Bit rate mode                            : Variable
  12. Bit rate                                 : 14.8 Mb/s
  13. Maximum bit rate                         : 15.0 Mb/s
  14. Width                                    : 1 440 pixels
  15. Height                                   : 1 080 pixels
  16. Display aspect ratio                     : 4:3
  17. Frame rate mode                          : Constant
  18. Frame rate                               : 23.976 (24000/1001) FPS
  19. Color space                              : YUV
  20. Chroma subsampling                       : 4:2:0
  21. Bit depth                                : 8 bits
  22. Scan type                                : Progressive
  23. Bits/(Pixel*Frame)                       : 0.396
  24. Stream size                              : 9.41 GiB (98%)
  25. Writing library                          : x264 core 148 r2623 d5b2374
  26. Encoding settings                        : cabac=1 / ref=4 / deblock=1:-1:-1 / analyse=0x3:0x133 / me=umh / subme=9 / psy=1 / psy_rd=1.00:0.15 / mixed_ref=1 / me_range=24 / chroma_me=1 / trellis=2 / 8x8dct=1 / cqm=0 / deadzone=21,11 / fast_pskip=1 / chroma_qp_offset=-3 / threads=34 / lookahead_threads=5 / sliced_threads=0 / nr=150 / decimate=1 / interlaced=0 / bluray_compat=0 / constrained_intra=0 / bframes=8 / b_pyramid=2 / b_adapt=2 / b_bias=0 / direct=3 / weightb=1 / open_gop=0 / weightp=2 / keyint=120 / keyint_min=61 / scenecut=0 / intra_refresh=0 / rc_lookahead=120 / rc=crf / mbtree=1 / crf=18.0 / qcomp=0.60 / qpmin=0 / qpmax=69 / qpstep=4 / vbv_maxrate=15000 / vbv_bufsize=31250 / crf_max=0.0 / nal_hrd=vbr / filler=0 / ip_ratio=1.40 / aq=3:1.00
  27. Language                                 : English
  28. Default                                  : Yes
  29. Forced                                   : No
  30. Color range                              : Limited
  31. Color primaries                          : BT.709
  32. Transfer characteristics                 : BT.709
  33. Matrix coefficients                      : BT.709

  34. Audio
  35. ID                                       : 2
  36. Format                                   : E-AC-3
  37. Format/Info                              : Enhanced AC-3
  38. Commercial name                          : Dolby Digital Plus
  39. Codec ID                                 : A_EAC3
  40. Duration                                 : 1 h 31 min
  41. Bit rate mode                            : Constant
  42. Bit rate                                 : 224 kb/s
  43. Channel(s)                               : 2 channels
  44. Channel layout                           : L R
  45. Sampling rate                            : 48.0 kHz
  46. Frame rate                               : 31.250 FPS (1536 SPF)
  47. Compression mode                         : Lossy
  48. Stream size                              : 146 MiB (1%)
  49. Language                                 : English
  50. Service kind                             : Complete Main
  51. Default                                  : Yes
  52. Forced                                   : No

  53. Text #1
  54. ID                                       : 3
  55. Format                                   : UTF-8
  56. Codec ID                                 : S_TEXT/UTF8
  57. Codec ID/Info                            : UTF-8 Plain Text
  58. Duration                                 : 1 h 30 min
  59. Bit rate                                 : 105 b/s
  60. Count of elements                        : 1377
  61. Stream size                              : 69.6 KiB (0%)
  62. Language                                 : English
  63. Default                                  : No
  64. Forced                                   : No

  65. Text #2
  66. ID                                       : 4
  67. Format                                   : UTF-8
  68. Codec ID                                 : S_TEXT/UTF8
  69. Codec ID/Info                            : UTF-8 Plain Text
  70. Duration                                 : 1 h 30 min
  71. Bit rate                                 : 109 b/s
  72. Count of elements                        : 1443
  73. Stream size                              : 72.5 KiB (0%)
  74. Title                                    : SDH
  75. Language                                 : English
  76. Default                                  : No
  77. Forced                                   : No

  78. Menu
  79. 00:00:00.000                             : en:01. "The Best Seller in the World"
  80. 00:05:12.040                             : en:02. Sales Meeting
  81. 00:07:11.159                             : en:03. Leads and Sales
  82. 00:14:34.635                             : en:04. Humor Sells
  83. 00:18:07.214                             : en:05. A Day\'s End
  84. 00:27:14.895                             : en:06. Chicago
  85. 00:32:24.404                             : en:07. Florida
  86. 00:38:08.748                             : en:08. Role Playing
  87. 00:43:55.394                             : en:09. Lost in Opa Locka
  88. 00:49:14.681                             : en:10. Pep Talk
  89. 00:50:31.825                             : en:11. The Rabbit
  90. 00:53:15.823                             : en:12. The Bull
  91. 00:54:15.883                             : en:13. The Gipper
  92. 00:58:06.815                             : en:14. The Badger
  93. 01:02:24.639                             : en:15. Questionable Tactics
  94. 01:03:49.658                             : en:16. Homesick
  95. 01:06:20.942                             : en:17. Paul Strikes Out
  96. 01:15:24.353                             : en:18. Frustration
  97. 01:17:45.829                             : en:19. Success and Failure
  98. 01:25:26.289                             : en:20. The Gipper Assists
  99. 01:28:26.636                             : en:21. Going Home
复制代码

倾销员/社会中坚 Salesman.1969.1080p.AMZN.WEBRip.DDP2.0.x264-SbR 9.55GB-2.png 倾销员/社会中坚 Salesman.1969.1080p.AMZN.WEBRip.DDP2.0.x264-SbR 9.55GB-3.png 倾销员/社会中坚 Salesman.1969.1080p.AMZN.WEBRip.DDP2.0.x264-SbR 9.55GB-4.png






VIP会员免费任意下载本站所有资源!---点击开通
回复

使用道具 举报

懒得打字嘛,点击右侧快捷回复 【右侧内容,后台自定义】
您需要登录后才可以回帖 登录 | 立即注册

本版积分规则

QQ|Archiver|手机版|小黑屋| 中国高清网 |网站地图

GMT+8, 2019-9-21 15:19 , Processed in 0.394942 second(s), 39 queries .

Powered by HDchina X3.4

Copyright 2017-2019©HDchina.All right reserved

返回顶部 联系我们