查看: 10|回复: 0

[剧情片] 庇护所 Shelter.2015.1080p.AMZN.WEBRip.DDP2.0.x264-monkee 5.68GB

[复制链接]

 成长值: 2570

级别:资源管理组

注册时间
2017-10-20
最后登录
2019-9-21
听众
1
收听
0
主题
83026
蓝光币
49759 枚
贡献
7354 点
发表于 2019-9-13 18:09:30 | 显示全部楼层 |阅读模式
庇护所 Shelter.2015.1080p.AMZN.WEBRip.DDP2.0.x264-monkee 5.68GB-1.png

译  名 庇护所
片  名 Shelter
年  代 2015
产  地 美国
类  别 剧情 / 科幻 / 惊悚
语  言 英语
IMDb评分  4.8/10 from 435 users
IMDb链接  http://www.imdb.com/title/tt2254131
豆瓣评分 0/10 from 0 users
豆瓣链接 https://movie.douban.com/subject/10537925/
导  演 Wrion Bowling / Adam C. Caudill
编  剧 Wrion Bowling / Adam C. Caudill
主  演 Joyce Hshieh
       Michael Lane
       Sarah Street


标  签 觀影2016 | America | 2015

简  介  

  一个不祥的灾难迫使五名幸存者在一个奥秘的地下防空洞里期待核的冬季。与有限的供给和无处可去,他们的斗争对时钟,不肯定,假如他们会保存,直到它的平安返回的概况。几个星期几个月,一个房间证实了五小我的小。习惯凝聚成常规,关系消融,让疯狂的固执。
  1. Video
  2. ID                                       : 1
  3. Format                                   : AVC
  4. Format/Info                              : Advanced Video Codec
  5. Format profile                           : <a href="/cdn-cgi/l/email-protection" class="__cf_email__" data-cfemail="c28aaba5aa828ef6">[email protected]</a>
  6. Format settings                          : CABAC / 4 Ref Frames
  7. Format settings, CABAC                   : Yes
  8. Format settings, Reference frames        : 4 frames
  9. Codec ID                                 : V_MPEG4/ISO/AVC
  10. Duration                                 : 1 h 31 min
  11. Bit rate mode                            : Constant
  12. Bit rate                                 : 8 623 kb/s
  13. Nominal bit rate                         : 10 000 kb/s
  14. Width                                    : 1 920 pixels
  15. Height                                   : 1 080 pixels
  16. Display aspect ratio                     : 16:9
  17. Frame rate mode                          : Constant
  18. Frame rate                               : 23.976 (24000/1001) FPS
  19. Color space                              : YUV
  20. Chroma subsampling                       : 4:2:0
  21. Bit depth                                : 8 bits
  22. Scan type                                : Progressive
  23. Bits/(Pixel*Frame)                       : 0.173
  24. Stream size                              : 5.54 GiB (97%)
  25. Default                                  : Yes
  26. Forced                                   : No
  27. Color range                              : Limited
  28. Color primaries                          : BT.709
  29. Transfer characteristics                 : BT.709
  30. Matrix coefficients                      : BT.709

  31. Audio
  32. ID                                       : 2
  33. Format                                   : E-AC-3
  34. Format/Info                              : Enhanced AC-3
  35. Commercial name                          : Dolby Digital Plus
  36. Codec ID                                 : A_EAC3
  37. Duration                                 : 1 h 31 min
  38. Bit rate mode                            : Constant
  39. Bit rate                                 : 224 kb/s
  40. Channel(s)                               : 2 channels
  41. Channel layout                           : L R
  42. Sampling rate                            : 48.0 kHz
  43. Frame rate                               : 31.250 FPS (1536 SPF)
  44. Compression mode                         : Lossy
  45. Stream size                              : 147 MiB (3%)
  46. Language                                 : English
  47. Service kind                             : Complete Main
  48. Default                                  : Yes
  49. Forced                                   : No

  50. Text #1
  51. ID                                       : 3
  52. Format                                   : UTF-8
  53. Codec ID                                 : S_TEXT/UTF8
  54. Codec ID/Info                            : UTF-8 Plain Text
  55. Duration                                 : 1 h 25 min
  56. Bit rate                                 : 45 b/s
  57. Count of elements                        : 984
  58. Stream size                              : 28.7 KiB (0%)
  59. Language                                 : English
  60. Default                                  : No
  61. Forced                                   : No

  62. Text #2
  63. ID                                       : 4
  64. Format                                   : UTF-8
  65. Codec ID                                 : S_TEXT/UTF8
  66. Codec ID/Info                            : UTF-8 Plain Text
  67. Duration                                 : 1 h 28 min
  68. Bit rate                                 : 45 b/s
  69. Count of elements                        : 1045
  70. Stream size                              : 29.7 KiB (0%)
  71. Title                                    : SDH
  72. Language                                 : English
  73. Default                                  : No
  74. Forced                                   : No
复制代码

庇护所 Shelter.2015.1080p.AMZN.WEBRip.DDP2.0.x264-monkee 5.68GB-2.png 庇护所 Shelter.2015.1080p.AMZN.WEBRip.DDP2.0.x264-monkee 5.68GB-3.png 庇护所 Shelter.2015.1080p.AMZN.WEBRip.DDP2.0.x264-monkee 5.68GB-4.png





VIP会员免费任意下载本站所有资源!---点击开通
回复

使用道具 举报

懒得打字嘛,点击右侧快捷回复 【右侧内容,后台自定义】
您需要登录后才可以回帖 登录 | 立即注册

本版积分规则

QQ|Archiver|手机版|小黑屋| 中国高清网 |网站地图

GMT+8, 2019-9-21 20:59 , Processed in 0.478005 second(s), 39 queries .

Powered by HDchina X3.4

Copyright 2017-2019©HDchina.All right reserved

返回顶部 联系我们