查看: 16|回复: 0

[剧情片] 斯卡堡/情陷斯卡布羅 Scarborough.2018.1080p.WEB-DL.DD5.1.H264-FGT 3.02GB

[复制链接]

 成长值: 2570

级别:资源管理组

注册时间
2017-10-20
最后登录
2019-9-21
听众
1
收听
0
主题
83026
蓝光币
49781 枚
贡献
7354 点
发表于 2019-9-13 16:43:08 | 显示全部楼层 |阅读模式
斯卡堡/情陷斯卡布羅 Scarborough.2018.1080p.WEB-DL.DD5.1.H264-FGT 3.02GB-1.png

译  名 斯卡堡 / 情陷斯卡布羅(台) / 谬爱(港)
片  名 Scarborough
年  代 2018
产  地 英国
类  别 剧情
语  言 英语
上映日期 2018-10-13(波兰华沙电影节)
IMDb评分  6.9/10 from 58 users
IMDb链接  http://www.imdb.com/title/tt6945932
豆瓣评分 0/10 from 0 users
豆瓣链接 https://movie.douban.com/subject/27133283/
片  长 84分钟
导  演 巴恩纳比·萨斯科贝 Barnaby Southcombe
编  剧 巴恩纳比·萨斯科贝 Barnaby Southcombe / Fiona Evans
主  演 乔迪·梅 Jodhi May
       爱德华·霍格 Edward Hogg
       乔丹·博尔格 Jordan Bolger
       杰西卡·巴登 Jessica Barden
       凯利斯顿·韦勒英 Kierston Wareing


标  签 英国 | 英國 | Jordan | Bolger

简  介  

  英国海滨小镇史嘉布洛迎来两对不相衬的情人,美丽害臊的Liz和她阳光的16岁男友Daz,感性艺术家Aiden和他急躁的16岁情人Beth。阔别故乡世俗的窥视,他们在小镇上纵情欢笑、争持、做爱,享用愉快的匿名时光。但是,当他们被逼面临恋爱关系不正当的本质,并从肆无忌惮的爱中抽离出来时,权利静静发生转移,关系也从欢畅酿成疾苦。
  1. Video
  2. ID                                       : 1
  3. Format                                   : AVC
  4. Format/Info                              : Advanced Video Codec
  5. Format profile                           : <a href="/cdn-cgi/l/email-protection" class="__cf_email__" data-cfemail="6a22030d022a265e">[email protected]</a>
  6. Format settings                          : CABAC / 5 Ref Frames
  7. Format settings, CABAC                   : Yes
  8. Format settings, Reference frames        : 5 frames
  9. Codec ID                                 : V_MPEG4/ISO/AVC
  10. Duration                                 : 1 h 27 min
  11. Bit rate                                 : 4 558 kb/s
  12. Width                                    : 1 424 pixels
  13. Height                                   : 1 072 pixels
  14. Display aspect ratio                     : 4:3
  15. Frame rate mode                          : Constant
  16. Frame rate                               : 23.976 FPS
  17. Color space                              : YUV
  18. Chroma subsampling                       : 4:2:0
  19. Bit depth                                : 8 bits
  20. Scan type                                : Progressive
  21. Bits/(Pixel*Frame)                       : 0.125
  22. Stream size                              : 2.78 GiB (92%)
  23. Title                                    : Scarborough.2019.1080p.WEB-DL.DD5.1.H264-FGT
  24. Language                                 : English
  25. Default                                  : Yes
  26. Forced                                   : No
  27. Color range                              : Limited
  28. Color primaries                          : BT.709
  29. Transfer characteristics                 : BT.709
  30. Matrix coefficients                      : BT.709

  31. Audio
  32. ID                                       : 2
  33. Format                                   : AC-3
  34. Format/Info                              : Audio Coding 3
  35. Commercial name                          : Dolby Digital
  36. Codec ID                                 : A_AC3
  37. Duration                                 : 1 h 27 min
  38. Bit rate mode                            : Constant
  39. Bit rate                                 : 384 kb/s
  40. Channel(s)                               : 6 channels
  41. Channel layout                           : L R C LFE Ls Rs
  42. Sampling rate                            : 48.0 kHz
  43. Frame rate                               : 31.250 FPS (1536 SPF)
  44. Bit depth                                : 16 bits
  45. Compression mode                         : Lossy
  46. Stream size                              : 240 MiB (8%)
  47. Title                                    : Scarborough.2019.1080p.WEB-DL.DD5.1.H264-FGT
  48. Language                                 : English
  49. Service kind                             : Complete Main
  50. Default                                  : Yes
  51. Forced                                   : No

  52. Text
  53. ID                                       : 3
  54. Format                                   : UTF-8
  55. Codec ID                                 : S_TEXT/UTF8
  56. Codec ID/Info                            : UTF-8 Plain Text
  57. Duration                                 : 1 h 24 min
  58. Bit rate                                 : 62 b/s
  59. Count of elements                        : 1091
  60. Stream size                              : 38.4 KiB (0%)
  61. Language                                 : English
  62. Default                                  : Yes
  63. Forced                                   : No

  64. Menu
  65. 00:00:00.000                             : en:1
  66. 00:02:27.000                             : en:2
  67. 00:11:18.000                             : en:3
  68. 00:21:53.000                             : en:4
  69. 00:31:25.000                             : en:5
  70. 00:41:45.000                             : en:6
  71. 00:51:54.000                             : en:7
  72. 01:01:24.000                             : en:8
  73. 01:12:02.000                             : en:9
  74. 01:24:58.000                             : en:10
复制代码

斯卡堡/情陷斯卡布羅 Scarborough.2018.1080p.WEB-DL.DD5.1.H264-FGT 3.02GB-2.png 斯卡堡/情陷斯卡布羅 Scarborough.2018.1080p.WEB-DL.DD5.1.H264-FGT 3.02GB-3.png 斯卡堡/情陷斯卡布羅 Scarborough.2018.1080p.WEB-DL.DD5.1.H264-FGT 3.02GB-4.png





VIP会员免费任意下载本站所有资源!---点击开通
回复

使用道具 举报

懒得打字嘛,点击右侧快捷回复 【右侧内容,后台自定义】
您需要登录后才可以回帖 登录 | 立即注册

本版积分规则

QQ|Archiver|手机版|小黑屋| 中国高清网 |网站地图

GMT+8, 2019-9-21 21:50 , Processed in 0.368864 second(s), 39 queries .

Powered by HDchina X3.4

Copyright 2017-2019©HDchina.All right reserved

返回顶部 联系我们