查看: 68|回复: 0

[科幻片] 尼可曼斯 Nekrotronic.2018.1080p.BluRay.x264-PFa 6.54GB

[复制链接]

 成长值: 2570

级别:资源管理组

注册时间
2017-10-20
最后登录
2019-9-21
听众
1
收听
0
主题
83009
蓝光币
49621 枚
贡献
7337 点
发表于 2019-9-13 13:15:10 | 显示全部楼层 |阅读模式
尼可曼斯 Nekrotronic.2018.1080p.BluRay.x264-PFa 6.54GB-1.png

译  名 尼可曼斯
片  名 Nekrotronic
年  代 2019
产  地 澳大利亚
类  别 科幻 / 可骇
上映日期 2018-09-07(多伦多电影节)
IMDb评分  5.6/10 from 158 users
IMDb链接  http://www.imdb.com/title/tt7453418
豆瓣评分 0/10 from 0 users
豆瓣链接 https://movie.douban.com/subject/27158530/
导  演 Kiah Roache-Turner / Tristan Roache-Turner
编  剧 Kiah Roache-Turner / Tristan Roache-Turner
主  演 莫妮卡·贝鲁奇 Monica Bellucci
       本·奥图尔 Ben O'Toole
       泰丝·哈乌布里奇 Tess Haubrich


标  签 科幻 | 可骇 | 澳大利亚 | 莫妮卡·贝鲁奇 | 莫妮卡 | 澳大利亚电影 | 2019

简  介  

  莫妮卡·贝鲁奇加盟科幻可骇片[尼可曼斯](Nekromancer,暂译)。影片由澳大利亚导演凯·瑞奇-特纳及凯兄弟两人执导。影片卡司还包括本·奥图尔([底特律])、泰丝·哈乌布里奇([机械之血])。该片由eOne结合Screen Australia、 Create NSW投资建造。影片今年于悉尼开拍,剧情未知。
  1. Video
  2. ID                                       : 1
  3. Format                                   : AVC
  4. Format/Info                              : Advanced Video Codec
  5. Format profile                           : <a href="/cdn-cgi/l/email-protection" class="__cf_email__" data-cfemail="cc84a5aba48c80f8e2fd">[email protected]</a>
  6. Format settings                          : CABAC / 5 Ref Frames
  7. Format settings, CABAC                   : Yes
  8. Format settings, Reference frames        : 5 frames
  9. Codec ID                                 : V_MPEG4/ISO/AVC
  10. Duration                                 : 1 h 36 min
  11. Bit rate                                 : 8 170 kb/s
  12. Width                                    : 1 920 pixels
  13. Height                                   : 800 pixels
  14. Display aspect ratio                     : 2.40:1
  15. Frame rate mode                          : Constant
  16. Frame rate                               : 23.976 (24000/1001) FPS
  17. Color space                              : YUV
  18. Chroma subsampling                       : 4:2:0
  19. Bit depth                                : 8 bits
  20. Scan type                                : Progressive
  21. Bits/(Pixel*Frame)                       : 0.222
  22. Stream size                              : 5.52 GiB (84%)
  23. Writing library                          : x264 core 157 r2969 d4099dd
  24. Encoding settings                        : cabac=1 / ref=5 / deblock=1:0:0 / analyse=0x3:0x133 / me=umh / subme=8 / psy=1 / psy_rd=1.00:0.00 / mixed_ref=1 / me_range=16 / chroma_me=1 / trellis=1 / 8x8dct=1 / cqm=0 / deadzone=21,11 / fast_pskip=0 / chroma_qp_offset=-2 / threads=12 / lookahead_threads=2 / sliced_threads=0 / nr=0 / decimate=1 / interlaced=0 / bluray_compat=0 / constrained_intra=0 / bframes=3 / b_pyramid=2 / b_adapt=1 / b_bias=0 / direct=1 / weightb=1 / open_gop=0 / weightp=2 / keyint=250 / keyint_min=23 / scenecut=40 / intra_refresh=0 / rc_lookahead=40 / rc=2pass / mbtree=1 / bitrate=8170 / ratetol=1.0 / qcomp=0.60 / qpmin=0 / qpmax=69 / qpstep=4 / cplxblur=20.0 / qblur=0.5 / ip_ratio=1.40 / aq=1:1.00
  25. Language                                 : English
  26. Default                                  : Yes
  27. Forced                                   : No

  28. Audio
  29. ID                                       : 2
  30. Format                                   : DTS
  31. Format/Info                              : Digital Theater Systems
  32. Codec ID                                 : A_DTS
  33. Duration                                 : 1 h 36 min
  34. Bit rate mode                            : Constant
  35. Bit rate                                 : 1 509 kb/s
  36. Channel(s)                               : 6 channels
  37. Channel layout                           : C L R Ls Rs LFE
  38. Sampling rate                            : 48.0 kHz
  39. Frame rate                               : 93.750 FPS (512 SPF)
  40. Bit depth                                : 16 bits
  41. Compression mode                         : Lossy
  42. Stream size                              : 1.02 GiB (16%)
  43. Default                                  : Yes
  44. Forced                                   : No
复制代码

尼可曼斯 Nekrotronic.2018.1080p.BluRay.x264-PFa 6.54GB-2.png






VIP会员免费任意下载本站所有资源!---点击开通
回复

使用道具 举报

懒得打字嘛,点击右侧快捷回复 【右侧内容,后台自定义】
您需要登录后才可以回帖 登录 | 立即注册

本版积分规则

QQ|Archiver|手机版|小黑屋| 中国高清网 |网站地图

GMT+8, 2019-9-21 14:40 , Processed in 0.401652 second(s), 39 queries .

Powered by HDchina X3.4

Copyright 2017-2019©HDchina.All right reserved

返回顶部 联系我们