查看: 7|回复: 0

[喜剧片] 八脚怪/近蛛者杀 Eight.Legged.Freaks.2002.1080p.AMZN.WEBRip.DD5.1.x264-monkee 9.55GB

[复制链接]

 成长值: 2560

级别:资源管理组

注册时间
2017-10-20
最后登录
2019-9-19
听众
1
收听
0
主题
82921
蓝光币
49296 枚
贡献
7249 点
发表于 7 天前 | 显示全部楼层 |阅读模式
八脚怪/近蛛者杀 Eight.Legged.Freaks.2002.1080p.AMZN.WEBRip.DD5.1.x264-monkee 9.55GB-1.png

译  名 八脚怪 / 近蛛者杀
片  名 Eight Legged Freaks
年  代 2002
产  地 美国 / 澳大利亚
类  别 笑剧 / 可骇
语  言 英语
上映日期 2002-07-17
IMDb评分  5.4/10 from 50317 users
IMDb链接  http://www.imdb.com/title/tt0271367
豆瓣评分 6.0/10 from 4428 users
豆瓣链接 https://movie.douban.com/subject/1298602/
片  长 99 分钟
导  演 Ellory Elkayem
编  剧 Jesse Alexander / Ellory Elkayem
主  演 David Arquette
       Kari Wuhrer
       Tom Noonan
       Scarlett Johansson
       Rick Overton


标  签 科幻 | 美国 | 惊悚 | 可骇 | 笑剧 | 美国电影 | 八脚怪 | 2002

简  介  

  美国亚利桑那州矿业小镇繁华镇,一辆输送化学质料的卡车发闹变乱,将有毒废物倾倒进当地河流。镇上养蛛人的上千蜘蛛被净化,变得体积庞大,成批进入烧毁的矿井栖息滋生。小镇警长珊姆?帕克(卡瑞?伍尔Kari Wührer饰)的儿子迈克(史考特?泰拉 Scott Terra 饰)发现了庞大的蜘蛛腿,思疑养蛛人遇害,但母亲珊姆却不听儿子诠释。镇上矿主的儿子克里斯?麦克康莫克(大卫?阿奎特David Arquette饰)在镇议会上归来,否决镇长出售矿井的倡议。克里斯对珊姆余情未了,却没勇气向才子表白心迹。迈克将巨型蛛腿展现给克里斯看,后者仍然将信将疑。与此同时,矿井里的庞大蜘蛛起头进犯镇上动物,然后是人类。通讯系统也被“八脚怪”破坏,全镇人的生命危在旦夕……
  1. Video
  2. ID : 1
  3. Format : AVC
  4. Format/Info : Advanced Video Codec
  5. Format profile : <a href="/cdn-cgi/l/email-protection" class="__cf_email__" data-cfemail="afe7c6c8c7efe39b">[email protected]</a>
  6. Format settings : CABAC / 4 Ref Frames
  7. Format settings, CABAC : Yes
  8. Format settings, Reference frames : 4 frames
  9. Codec ID : V_MPEG4/ISO/AVC
  10. Duration : 1 h 39 min
  11. Bit rate mode : Variable
  12. Bit rate : 13.2 Mb/s
  13. Maximum bit rate : 15.0 Mb/s
  14. Width : 1 920 pixels
  15. Height : 816 pixels
  16. Display aspect ratio : 2.35:1
  17. Frame rate mode : Constant
  18. Frame rate : 23.976 (24000/1001) FPS
  19. Color space : YUV
  20. Chroma subsampling : 4:2:0
  21. Bit depth : 8 bits
  22. Scan type : Progressive
  23. Bits/(Pixel*Frame) : 0.350
  24. Stream size : 9.13 GiB (96%)
  25. Title : x264
  26. Writing library : x264 core 148 r2623 d5b2374
  27. Encoding settings : cabac=1 / ref=4 / deblock=1:-1:-1 / analyse=0x3:0x133 / me=umh / subme=9 / psy=1 / psy_rd=1.00:0.15 / mixed_ref=1 / me_range=24 / chroma_me=1 / trellis=2 / 8x8dct=1 / cqm=0 / deadzone=21,11 / fast_pskip=1 / chroma_qp_offset=-3 / threads=25 / lookahead_threads=4 / sliced_threads=0 / nr=150 / decimate=1 / interlaced=0 / bluray_compat=0 / constrained_intra=0 / bframes=8 / b_pyramid=2 / b_adapt=2 / b_bias=0 / direct=3 / weightb=1 / open_gop=0 / weightp=2 / keyint=120 / keyint_min=61 / scenecut=0 / intra_refresh=0 / rc_lookahead=120 / rc=crf / mbtree=1 / crf=18.0 / qcomp=0.60 / qpmin=0 / qpmax=69 / qpstep=4 / vbv_maxrate=15000 / vbv_bufsize=31250 / crf_max=0.0 / nal_hrd=vbr / filler=0 / ip_ratio=1.40 / aq=3:1.00
  28. Default : Yes
  29. Forced : No
  30. Color range : Limited
  31. Color primaries : BT.709
  32. Transfer characteristics : BT.709
  33. Matrix coefficients : BT.709

  34. Audio
  35. ID : 2
  36. Format : AC-3
  37. Format/Info : Audio Coding 3
  38. Commercial name : Dolby Digital
  39. Codec ID : A_AC3
  40. Duration : 1 h 39 min
  41. Bit rate mode : Constant
  42. Bit rate : 384 kb/s
  43. Channel(s) : 6 channels
  44. Channel layout : L R C LFE Ls Rs
  45. Sampling rate : 48.0 kHz
  46. Frame rate : 31.250 FPS (1536 SPF)
  47. Bit depth : 16 bits
  48. Compression mode : Lossy
  49. Stream size : 273 MiB (3%)
  50. Title : DD5.1
  51. Language : English
  52. Service kind : Complete Main
  53. Default : Yes
  54. Forced : No

  55. Text
  56. ID : 4
  57. Format : UTF-8
  58. Codec ID : S_TEXT/UTF8
  59. Codec ID/Info : UTF-8 Plain Text
  60. Duration : 1 h 34 min
  61. Bit rate : 48 b/s
  62. Count of elements : 1492
  63. Stream size : 33.3 KiB (0%)
  64. Title : SRT
  65. Language : English
  66. Default : No
  67. Forced : No

  68. Menu
  69. 00:00:00.000 : en:Wake up, Prosperity.
  70. 00:03:39.000 : en:Arac attack.
  71. 00:08:14.000 : en:Welcome home.
  72. 00:11:16.000 : en:Ticket not to ride.
  73. 00:14:12.000 : en:Scene of a misdemeanor.
  74. 00:17:44.000 : en:Catastrophe.
  75. 00:20:03.000 : en:Telling Sam.
  76. 00:25:10.000 : en:Never believe the kid.
  77. 00:27:58.000 : en:Exactly the problem.
  78. 00:31:33.000 : en:Ostrich meat.
  79. 00:34:49.000 : en:Close shaves.
  80. 00:38:17.000 : en:They're coming!
  81. 00:42:19.000 : en:Gladys enmeshed.
  82. 00:45:47.000 : en:Siege at Sam's.
  83. 00:49:30.000 : en:Bob?!?
  84. 00:51:58.000 : en:Splat goes the jumper.
  85. 00:54:51.000 : en:Trailer trashing.
  86. 00:59:24.000 : en:Downtown invasion.
  87. 01:03:01.000 : en:Mall mayhem.
  88. 01:05:34.000 : en:Armed and fragrant.
  89. 01:08:53.000 : en:They're here.
  90. 01:11:18.000 : en:Slice 'n' dice.
  91. 01:15:25.000 : en:Close quarters.
  92. 01:19:43.000 : en:Into the mines.
  93. 01:23:35.000 : en:Cocoon chamber.
  94. 01:27:23.000 : en:Spider queen.
  95. 01:30:13.000 : en:Giving it the gas.
  96. 01:33:09.000 : en:The truth.
  97. 01:35:29.000 : en:End credits.
复制代码

八脚怪/近蛛者杀 Eight.Legged.Freaks.2002.1080p.AMZN.WEBRip.DD5.1.x264-monkee 9.55GB-2.png 八脚怪/近蛛者杀 Eight.Legged.Freaks.2002.1080p.AMZN.WEBRip.DD5.1.x264-monkee 9.55GB-3.png 八脚怪/近蛛者杀 Eight.Legged.Freaks.2002.1080p.AMZN.WEBRip.DD5.1.x264-monkee 9.55GB-4.png 47118204193159641506_medium.png 八脚怪/近蛛者杀 Eight.Legged.Freaks.2002.1080p.AMZN.WEBRip.DD5.1.x264-monkee 9.55GB-6.png 八脚怪/近蛛者杀 Eight.Legged.Freaks.2002.1080p.AMZN.WEBRip.DD5.1.x264-monkee 9.55GB-7.png






VIP会员免费任意下载本站所有资源!---点击开通
回复

使用道具 举报

懒得打字嘛,点击右侧快捷回复 【右侧内容,后台自定义】
您需要登录后才可以回帖 登录 | 立即注册

本版积分规则

QQ|Archiver|手机版|小黑屋| 中国高清网 |网站地图

GMT+8, 2019-9-20 04:48 , Processed in 0.398663 second(s), 39 queries .

Powered by HDchina X3.4

Copyright 2017-2019©HDchina.All right reserved

返回顶部 联系我们