查看: 9|回复: 0

[剧情片] 夏日狂欢 Summer.of.8.2016.1080p.AMZN.WEBRip.DDP5.1.x264-KiNGS 5.52GB

[复制链接]

 成长值: 2570

级别:资源管理组

注册时间
2017-10-20
最后登录
2019-9-21
听众
1
收听
0
主题
83009
蓝光币
49621 枚
贡献
7337 点
发表于 2019-9-13 11:25:36 | 显示全部楼层 |阅读模式
夏日狂欢 Summer.of.8.2016.1080p.AMZN.WEBRip.DDP5.1.x264-KiNGS 5.52GB-1.png

译  名 夏日狂欢 / Still Life
片  名 Summer of 8
年  代 2016
产  地 美国
类  别 剧情 / 笑剧 / 恋爱
语  言 英语
上映日期 2016-04-26
IMDb评分  5.5/10 from 1038 users
IMDb链接  http://www.imdb.com/title/tt4172146
豆瓣评分 5.8/10 from 72 users
豆瓣链接 https://movie.douban.com/subject/26635372/
导  演 Ryan Schwartz
编  剧 Ryan Schwartz
主  演 卡特·詹金斯 Carter Jenkins
       迈克尔·格兰特 Michael Grant
       马特·夏夫利 Matt Shively
       Nick Marini
       雪莱·亨尼格 Shelley Hennig
       Bailey Noble
       蕾切尔·迪皮罗 Rachel DiPillo
       娜塔莉·豪尔 Natalie Hall
       索尼亚·瓦格尔 Sonya Walger


标  签 青春 | 恋爱 | 美国 | 友谊 | 2016 | 2015 | 剧情 | 美国电影

简  介  

  Eight close friends soak up their last day of summer together on the beach before parting ways for college.
  1. Video
  2. ID                                       : 2
  3. Format                                   : AVC
  4. Format/Info                              : Advanced Video Codec
  5. Format profile                           : <a href="/cdn-cgi/l/email-protection" class="__cf_email__" data-cfemail="e1a9888689a1add5">[email protected]</a>
  6. Format settings                          : CABAC / 4 Ref Frames
  7. Format settings, CABAC                   : Yes
  8. Format settings, Reference frames        : 4 frames
  9. Codec ID                                 : V_MPEG4/ISO/AVC
  10. Duration                                 : 1 h 29 min
  11. Bit rate mode                            : Variable
  12. Bit rate                                 : 8 045 kb/s
  13. Maximum bit rate                         : 15.0 Mb/s
  14. Width                                    : 1 920 pixels
  15. Height                                   : 1 080 pixels
  16. Display aspect ratio                     : 16:9
  17. Frame rate mode                          : Constant
  18. Frame rate                               : 23.976 (24000/1001) FPS
  19. Color space                              : YUV
  20. Chroma subsampling                       : 4:2:0
  21. Bit depth                                : 8 bits
  22. Scan type                                : Progressive
  23. Bits/(Pixel*Frame)                       : 0.162
  24. Stream size                              : 5.01 GiB (91%)
  25. Writing library                          : x264 core 148 r2623 d5b2374
  26. Encoding settings                        : cabac=1 / ref=4 / deblock=1:-1:-1 / analyse=0x3:0x133 / me=umh / subme=9 / psy=1 / psy_rd=1.00:0.15 / mixed_ref=1 / me_range=24 / chroma_me=1 / trellis=2 / 8x8dct=1 / cqm=0 / deadzone=21,11 / fast_pskip=1 / chroma_qp_offset=-3 / threads=34 / lookahead_threads=5 / sliced_threads=0 / nr=150 / decimate=1 / interlaced=0 / bluray_compat=0 / constrained_intra=0 / bframes=8 / b_pyramid=2 / b_adapt=2 / b_bias=0 / direct=3 / weightb=1 / open_gop=0 / weightp=2 / keyint=120 / keyint_min=61 / scenecut=0 / intra_refresh=0 / rc_lookahead=120 / rc=crf / mbtree=1 / crf=18.0 / qcomp=0.60 / qpmin=0 / qpmax=69 / qpstep=4 / vbv_maxrate=15000 / vbv_bufsize=31250 / crf_max=0.0 / nal_hrd=vbr / filler=0 / ip_ratio=1.40 / aq=3:1.00
  27. Language                                 : English
  28. Default                                  : Yes
  29. Forced                                   : No
  30. Color range                              : Limited
  31. Color primaries                          : BT.709
  32. Transfer characteristics                 : BT.709
  33. Matrix coefficients                      : BT.709

  34. Audio
  35. ID                                       : 1
  36. Format                                   : E-AC-3
  37. Format/Info                              : Enhanced AC-3
  38. Commercial name                          : Dolby Digital Plus
  39. Codec ID                                 : A_EAC3
  40. Duration                                 : 1 h 29 min
  41. Bit rate mode                            : Constant
  42. Bit rate                                 : 640 kb/s
  43. Channel(s)                               : 6 channels
  44. Channel layout                           : L R C LFE Ls Rs
  45. Sampling rate                            : 48.0 kHz
  46. Frame rate                               : 31.250 FPS (1536 SPF)
  47. Compression mode                         : Lossy
  48. Stream size                              : 408 MiB (7%)
  49. Language                                 : English
  50. Service kind                             : Complete Main
  51. Default                                  : Yes
  52. Forced                                   : No

  53. Text
  54. ID                                       : 3
  55. Format                                   : UTF-8
  56. Codec ID                                 : S_TEXT/UTF8
  57. Codec ID/Info                            : UTF-8 Plain Text
  58. Language                                 : English
  59. Default                                  : No
  60. Forced                                   : No
复制代码

夏日狂欢 Summer.of.8.2016.1080p.AMZN.WEBRip.DDP5.1.x264-KiNGS 5.52GB-2.png 夏日狂欢 Summer.of.8.2016.1080p.AMZN.WEBRip.DDP5.1.x264-KiNGS 5.52GB-3.png 夏日狂欢 Summer.of.8.2016.1080p.AMZN.WEBRip.DDP5.1.x264-KiNGS 5.52GB-4.png 夏日狂欢 Summer.of.8.2016.1080p.AMZN.WEBRip.DDP5.1.x264-KiNGS 5.52GB-5.png 夏日狂欢 Summer.of.8.2016.1080p.AMZN.WEBRip.DDP5.1.x264-KiNGS 5.52GB-6.png 夏日狂欢 Summer.of.8.2016.1080p.AMZN.WEBRip.DDP5.1.x264-KiNGS 5.52GB-7.png






VIP会员免费任意下载本站所有资源!---点击开通
回复

使用道具 举报

懒得打字嘛,点击右侧快捷回复 【右侧内容,后台自定义】
您需要登录后才可以回帖 登录 | 立即注册

本版积分规则

QQ|Archiver|手机版|小黑屋| 中国高清网 |网站地图

GMT+8, 2019-9-21 14:40 , Processed in 0.559916 second(s), 39 queries .

Powered by HDchina X3.4

Copyright 2017-2019©HDchina.All right reserved

返回顶部 联系我们