查看: 221|回复: 0

[2160p-WEB] 女英雄 Heroine.2017.2160p.NF.WEBRip.DDP5.1.X264-AJP69 12.85GB

[复制链接]

 成长值: 2560

级别:资源管理组

注册时间
2017-10-20
最后登录
2019-9-19
听众
1
收听
0
主题
82921
蓝光币
49296 枚
贡献
7249 点
发表于 7 天前 | 显示全部楼层 |阅读模式
女豪杰 Heroine.2017.2160p.NF.WEBRip.DDP5.1.X264-AJP69 12.85GB-1.png

译  名 女豪杰
片  名 Heroin
年  代 2017
产  地 美国 / 瑞士
类  别 剧情 / 记载片 / 列传
语  言 英语 / 德语
上映日期 2017-04(美国)
IMDb评分  6.5/10 from 20 users
IMDb链接  http://www.imdb.com/title/tt6734054
豆瓣评分 0/10 from 0 users
豆瓣链接 https://movie.douban.com/subject/27168179/
片  长 17分钟
导  演 Jessica Beshir
编  剧 Jessica Beshir / Gonzalez David
主  演 Karin Gunzenhauser
       Maite Iracheta
       Victor Rodriguez


标  签 美国 | 短片 | 电影 | 列传

简  介  

  暂无相关剧情先容
  1. Video
  2. ID                                       : 1
  3. Format                                   : AVC
  4. Format/Info                              : Advanced Video Codec
  5. Format profile                           : <a href="/cdn-cgi/l/email-protection" class="__cf_email__" data-cfemail="d39bbab4bb939fe6fde2">[email protected]</a>
  6. Format settings                          : CABAC / 5 Ref Frames
  7. Format settings, CABAC                   : Yes
  8. Format settings, Reference frames        : 5 frames
  9. Codec ID                                 : V_MPEG4/ISO/AVC
  10. Duration                                 : 39 min 38 s
  11. Bit rate                                 : 45.8 Mb/s
  12. Width                                    : 3 840 pixels
  13. Height                                   : 2 160 pixels
  14. Display aspect ratio                     : 16:9
  15. Frame rate mode                          : Constant
  16. Frame rate                               : 23.976 (24000/1001) FPS
  17. Color space                              : YUV
  18. Chroma subsampling                       : 4:2:0
  19. Bit depth                                : 8 bits
  20. Scan type                                : Progressive
  21. Bits/(Pixel*Frame)                       : 0.230
  22. Stream size                              : 12.7 GiB (99%)
  23. Writing library                          : x264 core 158 r2984 3759fcb
  24. Encoding settings                        : cabac=1 / ref=5 / deblock=1:-3:3 / analyse=0x3:0x133 / me=umh / subme=10 / psy=1 / psy_rd=1.00:0.00 / mixed_ref=1 / me_range=48 / chroma_me=1 / trellis=2 / 8x8dct=1 / cqm=0 / deadzone=21,11 / fast_pskip=0 / chroma_qp_offset=-2 / threads=18 / lookahead_threads=3 / sliced_threads=0 / nr=0 / decimate=0 / interlaced=0 / bluray_compat=0 / constrained_intra=0 / bframes=8 / b_pyramid=2 / b_adapt=2 / b_bias=0 / direct=3 / weightb=1 / open_gop=0 / weightp=2 / keyint=250 / keyint_min=23 / scenecut=40 / intra_refresh=0 / rc=crf / mbtree=0 / crf=17.0 / qcomp=0.60 / qpmin=0 / qpmax=69 / qpstep=4 / ip_ratio=1.30 / pb_ratio=1.20 / aq=3:0.80
  25. Language                                 : English
  26. Default                                  : Yes
  27. Forced                                   : No

  28. Audio
  29. ID                                       : 2
  30. Format                                   : E-AC-3
  31. Format/Info                              : Enhanced AC-3
  32. Commercial name                          : Dolby Digital Plus
  33. Codec ID                                 : A_EAC3
  34. Duration                                 : 39 min 38 s
  35. Bit rate mode                            : Constant
  36. Bit rate                                 : 640 kb/s
  37. Channel(s)                               : 6 channels
  38. Channel layout                           : L R C LFE Ls Rs
  39. Sampling rate                            : 48.0 kHz
  40. Frame rate                               : 31.250 FPS (1536 SPF)
  41. Compression mode                         : Lossy
  42. Stream size                              : 181 MiB (1%)
  43. Title                                    : English
  44. Language                                 : English
  45. Service kind                             : Complete Main
  46. Default                                  : Yes
  47. Forced                                   : No

  48. Text #1
  49. ID                                       : 3
  50. Format                                   : UTF-8
  51. Codec ID                                 : S_TEXT/UTF8
  52. Codec ID/Info                            : UTF-8 Plain Text
  53. Duration                                 : 30 min 10 s
  54. Bit rate                                 : 6 b/s
  55. Count of elements                        : 28
  56. Stream size                              : 1.34 KiB (0%)
  57. Title                                    : Forced
  58. Language                                 : English
  59. Default                                  : No
  60. Forced                                   : Yes

  61. Text #2
  62. ID                                       : 4
  63. Format                                   : UTF-8
  64. Codec ID                                 : S_TEXT/UTF8
  65. Codec ID/Info                            : UTF-8 Plain Text
  66. Duration                                 : 36 min 57 s
  67. Bit rate                                 : 96 b/s
  68. Count of elements                        : 605
  69. Stream size                              : 26.2 KiB (0%)
  70. Language                                 : English
  71. Default                                  : No
  72. Forced                                   : No

  73. Text #3
  74. ID                                       : 5
  75. Format                                   : UTF-8
  76. Codec ID                                 : S_TEXT/UTF8
  77. Codec ID/Info                            : UTF-8 Plain Text
  78. Duration                                 : 37 min 8 s
  79. Bit rate                                 : 105 b/s
  80. Count of elements                        : 649
  81. Stream size                              : 28.6 KiB (0%)
  82. Title                                    : SDH
  83. Language                                 : English
  84. Default                                  : No
  85. Forced                                   : No

  86. Text #4
  87. ID                                       : 6
  88. Format                                   : UTF-8
  89. Codec ID                                 : S_TEXT/UTF8
  90. Codec ID/Info                            : UTF-8 Plain Text
  91. Duration                                 : 38 min 38 s
  92. Bit rate                                 : 130 b/s
  93. Count of elements                        : 603
  94. Stream size                              : 36.9 KiB (0%)
  95. Language                                 : Arabic
  96. Default                                  : No
  97. Forced                                   : No

  98. Text #5
  99. ID                                       : 7
  100. Format                                   : UTF-8
  101. Codec ID                                 : S_TEXT/UTF8
  102. Codec ID/Info                            : UTF-8 Plain Text
  103. Duration                                 : 38 min 31 s
  104. Bit rate                                 : 71 b/s
  105. Count of elements                        : 598
  106. Stream size                              : 20.1 KiB (0%)
  107. Language                                 : Danish
  108. Default                                  : No
  109. Forced                                   : No

  110. Text #6
  111. ID                                       : 8
  112. Format                                   : UTF-8
  113. Codec ID                                 : S_TEXT/UTF8
  114. Codec ID/Info                            : UTF-8 Plain Text
  115. Duration                                 : 38 min 31 s
  116. Bit rate                                 : 76 b/s
  117. Count of elements                        : 598
  118. Stream size                              : 21.6 KiB (0%)
  119. Language                                 : German
  120. Default                                  : No
  121. Forced                                   : No

  122. Text #7
  123. ID                                       : 9
  124. Format                                   : UTF-8
  125. Codec ID                                 : S_TEXT/UTF8
  126. Codec ID/Info                            : UTF-8 Plain Text
  127. Duration                                 : 38 min 31 s
  128. Bit rate                                 : 131 b/s
  129. Count of elements                        : 603
  130. Stream size                              : 37.1 KiB (0%)
  131. Language                                 : Greek
  132. Default                                  : No
  133. Forced                                   : No

  134. Text #8
  135. ID                                       : 10
  136. Format                                   : UTF-8
  137. Codec ID                                 : S_TEXT/UTF8
  138. Codec ID/Info                            : UTF-8 Plain Text
  139. Duration                                 : 38 min 31 s
  140. Bit rate                                 : 67 b/s
  141. Count of elements                        : 603
  142. Stream size                              : 19.2 KiB (0%)
  143. Language                                 : Spanish
  144. Default                                  : No
  145. Forced                                   : No

  146. Text #9
  147. ID                                       : 11
  148. Format                                   : UTF-8
  149. Codec ID                                 : S_TEXT/UTF8
  150. Codec ID/Info                            : UTF-8 Plain Text
  151. Duration                                 : 38 min 31 s
  152. Bit rate                                 : 80 b/s
  153. Count of elements                        : 603
  154. Stream size                              : 22.7 KiB (0%)
  155. Title                                    : European
  156. Language                                 : Spanish
  157. Default                                  : No
  158. Forced                                   : No

  159. Text #10
  160. ID                                       : 12
  161. Format                                   : UTF-8
  162. Codec ID                                 : S_TEXT/UTF8
  163. Codec ID/Info                            : UTF-8 Plain Text
  164. Duration                                 : 38 min 38 s
  165. Bit rate                                 : 67 b/s
  166. Count of elements                        : 600
  167. Stream size                              : 19.1 KiB (0%)
  168. Language                                 : Finnish
  169. Default                                  : No
  170. Forced                                   : No

  171. Text #11
  172. ID                                       : 13
  173. Format                                   : UTF-8
  174. Codec ID                                 : S_TEXT/UTF8
  175. Codec ID/Info                            : UTF-8 Plain Text
  176. Duration                                 : 38 min 31 s
  177. Bit rate                                 : 72 b/s
  178. Count of elements                        : 598
  179. Stream size                              : 20.4 KiB (0%)
  180. Language                                 : French
  181. Default                                  : No
  182. Forced                                   : No

  183. Text #12
  184. ID                                       : 14
  185. Format                                   : UTF-8
  186. Codec ID                                 : S_TEXT/UTF8
  187. Codec ID/Info                            : UTF-8 Plain Text
  188. Duration                                 : 38 min 38 s
  189. Bit rate                                 : 120 b/s
  190. Count of elements                        : 603
  191. Stream size                              : 34.0 KiB (0%)
  192. Language                                 : Hebrew
  193. Default                                  : No
  194. Forced                                   : No

  195. Text #13
  196. ID                                       : 15
  197. Format                                   : UTF-8
  198. Codec ID                                 : S_TEXT/UTF8
  199. Codec ID/Info                            : UTF-8 Plain Text
  200. Duration                                 : 38 min 31 s
  201. Bit rate                                 : 74 b/s
  202. Count of elements                        : 602
  203. Stream size                              : 20.9 KiB (0%)
  204. Language                                 : Italian
  205. Default                                  : No
  206. Forced                                   : No

  207. Text #14
  208. ID                                       : 16
  209. Format                                   : UTF-8
  210. Codec ID                                 : S_TEXT/UTF8
  211. Codec ID/Info                            : UTF-8 Plain Text
  212. Duration                                 : 38 min 31 s
  213. Bit rate                                 : 72 b/s
  214. Count of elements                        : 569
  215. Stream size                              : 20.4 KiB (0%)
  216. Language                                 : Japanese
  217. Default                                  : No
  218. Forced                                   : No

  219. Text #15
  220. ID                                       : 17
  221. Format                                   : UTF-8
  222. Codec ID                                 : S_TEXT/UTF8
  223. Codec ID/Info                            : UTF-8 Plain Text
  224. Duration                                 : 38 min 38 s
  225. Bit rate                                 : 88 b/s
  226. Count of elements                        : 605
  227. Stream size                              : 25.0 KiB (0%)
  228. Language                                 : Korean
  229. Default                                  : No
  230. Forced                                   : No

  231. Text #16
  232. ID                                       : 18
  233. Format                                   : UTF-8
  234. Codec ID                                 : S_TEXT/UTF8
  235. Codec ID/Info                            : UTF-8 Plain Text
  236. Duration                                 : 38 min 31 s
  237. Bit rate                                 : 73 b/s
  238. Count of elements                        : 603
  239. Stream size                              : 20.8 KiB (0%)
  240. Language                                 : Norwegian Bokmal
  241. Default                                  : No
  242. Forced                                   : No

  243. Text #17
  244. ID                                       : 19
  245. Format                                   : UTF-8
  246. Codec ID                                 : S_TEXT/UTF8
  247. Codec ID/Info                            : UTF-8 Plain Text
  248. Duration                                 : 38 min 31 s
  249. Bit rate                                 : 67 b/s
  250. Count of elements                        : 602
  251. Stream size                              : 19.2 KiB (0%)
  252. Language                                 : Dutch
  253. Default                                  : No
  254. Forced                                   : No

  255. Text #18
  256. ID                                       : 20
  257. Format                                   : UTF-8
  258. Codec ID                                 : S_TEXT/UTF8
  259. Codec ID/Info                            : UTF-8 Plain Text
  260. Duration                                 : 38 min 38 s
  261. Bit rate                                 : 73 b/s
  262. Count of elements                        : 592
  263. Stream size                              : 20.8 KiB (0%)
  264. Language                                 : Polish
  265. Default                                  : No
  266. Forced                                   : No

  267. Text #19
  268. ID                                       : 21
  269. Format                                   : UTF-8
  270. Codec ID                                 : S_TEXT/UTF8
  271. Codec ID/Info                            : UTF-8 Plain Text
  272. Duration                                 : 38 min 38 s
  273. Bit rate                                 : 80 b/s
  274. Count of elements                        : 603
  275. Stream size                              : 22.7 KiB (0%)
  276. Language                                 : Portuguese
  277. Default                                  : No
  278. Forced                                   : No

  279. Text #20
  280. ID                                       : 22
  281. Format                                   : UTF-8
  282. Codec ID                                 : S_TEXT/UTF8
  283. Codec ID/Info                            : UTF-8 Plain Text
  284. Duration                                 : 38 min 31 s
  285. Bit rate                                 : 80 b/s
  286. Count of elements                        : 603
  287. Stream size                              : 22.6 KiB (0%)
  288. Title                                    : Brazilian
  289. Language                                 : Portuguese
  290. Default                                  : No
  291. Forced                                   : No

  292. Text #21
  293. ID                                       : 23
  294. Format                                   : UTF-8
  295. Codec ID                                 : S_TEXT/UTF8
  296. Codec ID/Info                            : UTF-8 Plain Text
  297. Duration                                 : 38 min 38 s
  298. Bit rate                                 : 82 b/s
  299. Count of elements                        : 603
  300. Stream size                              : 23.4 KiB (0%)
  301. Language                                 : Romanian
  302. Default                                  : No
  303. Forced                                   : No

  304. Text #22
  305. ID                                       : 24
  306. Format                                   : UTF-8
  307. Codec ID                                 : S_TEXT/UTF8
  308. Codec ID/Info                            : UTF-8 Plain Text
  309. Duration                                 : 38 min 31 s
  310. Bit rate                                 : 78 b/s
  311. Count of elements                        : 602
  312. Stream size                              : 22.0 KiB (0%)
  313. Language                                 : Swedish
  314. Default                                  : No
  315. Forced                                   : No

  316. Text #23
  317. ID                                       : 25
  318. Format                                   : UTF-8
  319. Codec ID                                 : S_TEXT/UTF8
  320. Codec ID/Info                            : UTF-8 Plain Text
  321. Duration                                 : 38 min 38 s
  322. Bit rate                                 : 200 b/s
  323. Count of elements                        : 605
  324. Stream size                              : 56.8 KiB (0%)
  325. Language                                 : Thai
  326. Default                                  : No
  327. Forced                                   : No

  328. Text #24
  329. ID                                       : 26
  330. Format                                   : UTF-8
  331. Codec ID                                 : S_TEXT/UTF8
  332. Codec ID/Info                            : UTF-8 Plain Text
  333. Duration                                 : 38 min 31 s
  334. Bit rate                                 : 87 b/s
  335. Count of elements                        : 603
  336. Stream size                              : 24.8 KiB (0%)
  337. Language                                 : Turkish
  338. Default                                  : No
  339. Forced                                   : No

  340. Text #25
  341. ID                                       : 27
  342. Format                                   : UTF-8
  343. Codec ID                                 : S_TEXT/UTF8
  344. Codec ID/Info                            : UTF-8 Plain Text
  345. Duration                                 : 38 min 38 s
  346. Bit rate                                 : 72 b/s
  347. Count of elements                        : 604
  348. Stream size                              : 20.5 KiB (0%)
  349. Title                                    : Simplified
  350. Language                                 : Chinese
  351. Default                                  : No
  352. Forced                                   : No

  353. Text #26
  354. ID                                       : 28
  355. Format                                   : UTF-8
  356. Codec ID                                 : S_TEXT/UTF8
  357. Codec ID/Info                            : UTF-8 Plain Text
  358. Duration                                 : 38 min 31 s
  359. Bit rate                                 : 71 b/s
  360. Count of elements                        : 603
  361. Stream size                              : 20.2 KiB (0%)
  362. Title                                    : Traditional
  363. Language                                 : Chinese
  364. Default                                  : No
  365. Forced                                   : No
复制代码

女豪杰 Heroine.2017.2160p.NF.WEBRip.DDP5.1.X264-AJP69 12.85GB-2.png 女豪杰 Heroine.2017.2160p.NF.WEBRip.DDP5.1.X264-AJP69 12.85GB-3.png 女豪杰 Heroine.2017.2160p.NF.WEBRip.DDP5.1.X264-AJP69 12.85GB-4.png






本帖隐藏的下载地址需要VIP会员才可阅读,您需要升级才可阅读,点击这里升级VIP

VIP会员免费任意下载本站所有资源!---点击开通
回复

使用道具 举报

懒得打字嘛,点击右侧快捷回复 【右侧内容,后台自定义】
您需要登录后才可以回帖 登录 | 立即注册

本版积分规则

QQ|Archiver|手机版|小黑屋| 中国高清网 |网站地图

GMT+8, 2019-9-20 05:10 , Processed in 0.470945 second(s), 39 queries .

Powered by HDchina X3.4

Copyright 2017-2019©HDchina.All right reserved

返回顶部 联系我们