查看: 53|回复: 1

[悬疑片] 玛丽 Mary.1931.720p.BluRay.x264-NODLABS 4.37GB

[复制链接]

 成长值: 3820

级别:资源管理组

注册时间
2017-10-20
最后登录
2020-1-19
听众
1
收听
0
主题
90595
蓝光币
83286 枚
贡献
14957 点
发表于 2019-9-13 10:45:56 | 显示全部楼层 |阅读模式
玛丽 Mary.1931.720p.BluRay.x264-NODLABS 4.37GB-1.png " J' f5 d4 R2 q  O/ n) J/ J  l

1 C: l1 J% t$ |8 t  A8 `译  名 玛丽 / Murder
9 u  M" Z3 c8 {. h片  名 Mary
0 @7 a# x1 J8 h) s' Y1 o% b年  代 19318 m1 K* ]5 ?4 t9 a
产  地 德国 / 英国& C$ g3 a5 U+ C
类  别 悬疑 / 惊悚4 w1 ]! [6 ~, Y8 E3 L! }- K0 ]
语  言 德语
: C: g5 H, d' f( C- L  u$ J上映日期 1931-03-02, E/ M+ Y2 m7 U
IMDb评分  6.2/10 from 560 users
: {  C& I: B4 T( d/ l7 m2 xIMDb链接  http://www.imdb.com/title/tt00211289 I/ a- E9 f  i/ P2 }4 |
豆瓣评分 0/10 from 0 users
1 @0 d" G* P. ]$ p9 C  }豆瓣链接 https://movie.douban.com/subject/3152392/
: @) z( [) \/ T6 R/ Z# C) A片  长 78 分钟7 U; ~$ D1 a4 z5 S  b
导  演 阿尔弗雷德·希区柯克 Alfred Hitchcock0 B( N; s) c; u% c: m) U. h/ _
编  剧 Clemence Dane / Herbert Juttke$ a# |1 [* u+ H$ W
主  演 阿弗莱德·阿贝尔 Alfred Abel% }6 [/ H; U0 E- Z5 L4 f* p' L
       Olga Tschechowa
( k- q* A0 k, [- e1 _, Y+ \+ B. K       Paul Graetz7 T8 A  C% G% i1 j: M" i* {
" V+ S  W" \# K+ H; `
9 U% E$ x* Y1 O$ c, d( U
标  签 AlfredHitchcock | 希区柯克 | 1930s | 犯罪 | 德国 | 阿尔弗雷德·希区柯克 | 英国 | 悬疑; C. n+ ?4 E9 s/ y8 ^6 ]

' ?0 i4 U" y! [8 T3 E简  介  5 y, R& n8 v) O# \

5 X- P% J/ Q( \; b7 h  A juror in a murder trial, after voting to convict, has second thoughts and begins to investigate on his own before the execution. German version of "Murder."
$ E6 E/ U. y3 W1 [" T. C4 N
  1. Video
    * ^: _, a) B9 {1 N
  2. ID                                       : 1
    0 N0 |! s6 a9 |! A: G) Y
  3. Format                                   : AVC* p1 x; C8 e9 L: `5 F5 e0 D9 o6 p
  4. Format/Info                              : Advanced Video Codec$ v" ]2 s. B) n" ^1 o
  5. Format profile                           : <a href="/cdn-cgi/l/email-protection" class="__cf_email__" data-cfemail="430b2a242b030f776d72">[email protected]</a>
    ) U" Y, ^8 z1 `& T, j- o
  6. Format settings                          : CABAC / 5 Ref Frames9 U) `! c: S/ p" L: s, ~, b6 z
  7. Format settings, CABAC                   : Yes
    4 f$ f& F/ ^! L% Q
  8. Format settings, Reference frames        : 5 frames
    0 A" |2 j* i: O7 ]$ s6 |! k
  9. Codec ID                                 : V_MPEG4/ISO/AVC( Z) u, K8 q! G* h; P% j) l
  10. Duration                                 : 1 h 22 min8 t; a  S4 l- M; I8 i, n
  11. Bit rate                                 : 6 109 kb/s! I" y. D3 N# ?4 c  q1 Z
  12. Width                                    : 960 pixels
    . |# L( Q+ v+ D- x9 S
  13. Height                                   : 720 pixels: n; H- S& q- r% S# W! Y2 P: J( T% n
  14. Display aspect ratio                     : 4:3
    / T0 B  e$ e( s1 H
  15. Frame rate mode                          : Constant
    + k- x3 B! c4 z( q6 E
  16. Frame rate                               : 23.976 (24000/1001) FPS
    ! R  D5 q1 S' D) y3 p6 F( i
  17. Color space                              : YUV9 E: ]( G1 l0 I# t% c- p
  18. Chroma subsampling                       : 4:2:0
    ( N* x7 b3 S5 g
  19. Bit depth                                : 8 bits
    9 `* [2 Q) T" b$ D
  20. Scan type                                : Progressive7 z7 M9 p; |3 m5 t! @+ m
  21. Bits/(Pixel*Frame)                       : 0.369
    # _- n5 \& g5 [! x
  22. Stream size                              : 3.42 GiB (78%)
    ( C' I" b3 j- Y4 u( _9 q8 l
  23. Writing library                          : x264 core 158 r2984 3759fcb: M  ]5 d% l. o, Q( v/ L4 [
  24. Encoding settings                        : cabac=1 / ref=5 / deblock=1:-3:-3 / analyse=0x3:0x113 / me=umh / subme=8 / psy=1 / psy_rd=1.10:0.00 / mixed_ref=1 / me_range=24 / chroma_me=1 / trellis=2 / 8x8dct=1 / cqm=0 / deadzone=21,11 / fast_pskip=1 / chroma_qp_offset=-2 / threads=22 / lookahead_threads=3 / sliced_threads=0 / nr=0 / decimate=1 / interlaced=0 / bluray_compat=0 / constrained_intra=0 / bframes=3 / b_pyramid=2 / b_adapt=2 / b_bias=0 / direct=3 / weightb=1 / open_gop=0 / weightp=2 / keyint=240 / keyint_min=24 / scenecut=40 / intra_refresh=0 / rc_lookahead=50 / rc=2pass / mbtree=1 / bitrate=6109 / ratetol=1.0 / qcomp=0.60 / qpmin=0 / qpmax=69 / qpstep=4 / cplxblur=20.0 / qblur=0.5 / ip_ratio=1.40 / aq=3:0.65
    0 k# D1 C: Y9 E8 {; R/ o
  25. Default                                  : Yes% f' i- l3 Z, R7 R& k7 r
  26. Forced                                   : No! G+ l1 K/ K7 L1 T: |
  27. Statistics Tags Issue                    : no_variable_data 1970-01-01 00:00:00 / no_variable_data 2010-02-22 21:41:29
    , V% x' }' a2 ^  n  V- {! Q
  28. FromStats_BitRate                        : 61090534 M6 G# j/ h! c. E0 g% |
  29. FromStats_Duration                       : 01:22:06.422000000
    3 l6 W, H3 p( p, I  L0 w. L! w
  30. FromStats_FrameCount                     : 1181164 V. m- m5 ~4 [9 B5 h  h1 B4 k# U
  31. FromStats_StreamSize                     : 3761971843  {4 h5 Z1 ]( B/ Z

  32. : _5 I$ \* p7 [, v% W
  33. Audio4 t; ]1 G% `" X$ L5 s
  34. ID                                       : 2
    8 u. G  I8 ?  H0 z3 _
  35. Format                                   : DTS
    ( V4 h5 ^/ W2 V/ d* \: j3 ?
  36. Format/Info                              : Digital Theater Systems% Z  q! i, e/ R7 ^  d) Y$ W# y
  37. Codec ID                                 : A_DTS
    , y% ?$ H' I5 \9 N2 J
  38. Duration                                 : 1 h 22 min1 [. _, P; i& U  h% L: G
  39. Bit rate mode                            : Constant
    ; x( G# |: I0 x! W: N
  40. Bit rate                                 : 1 509 kb/s
    , O: b4 S' L) G2 s. u
  41. Channel(s)                               : 2 channels
    ! g- {; `  T  M4 D
  42. Channel layout                           : L R7 W5 A& H5 c4 \
  43. Sampling rate                            : 48.0 kHz
    , t0 A  S" Q4 x5 V" v2 q" V
  44. Frame rate                               : 93.750 FPS (512 SPF)& V0 M! Y' n; R8 _: t
  45. Bit depth                                : 24 bits
    # H. B9 @# ]. B% G
  46. Compression mode                         : Lossy; l3 u# F. B  x  P. }7 u! g2 e) i
  47. Stream size                              : 886 MiB (20%)
    " s7 U% u: z3 Y6 g
  48. Language                                 : German* L/ O" C: L3 W: J/ L) W0 T
  49. Default                                  : Yes
    / T$ \( m% y& p; A2 j- E- }. I
  50. Forced                                   : No
    - M% M# Q9 N1 I, J% Z7 p$ y
  51. Statistics Tags Issue                    : no_variable_data 1970-01-01 00:00:00 / no_variable_data 2010-02-22 21:41:29
    . K' D9 a" |8 `, e+ [, O; D
  52. FromStats_BitRate                        : 1508999: [, o- ~+ D1 Q; n* s: N, p+ s
  53. FromStats_Duration                       : 01:22:06.443000000; Y: w) K3 _# p2 \, K7 n  ]; {
  54. FromStats_FrameCount                     : 4618544 S, Y* o9 E# h% b: s
  55. FromStats_StreamSize                     : 929250248( v; r& A% G. [) m  J6 R+ p' a$ a1 R! ]

  56. $ ^! o, f" |! t! J( A
  57. Text
    $ X5 o/ K8 T. A# ?
  58. ID                                       : 38 m4 W' W: o3 z* h7 i' x
  59. Format                                   : UTF-8* P& y& z! O" K) ?
  60. Codec ID                                 : S_TEXT/UTF8/ w. Y, w2 @& c6 D+ Y# a1 E$ |
  61. Codec ID/Info                            : UTF-8 Plain Text
    ' t) H$ k  r( ^2 b3 c4 k
  62. Title                                    : Forced
      \# O9 M$ ?- T; m* w2 X
  63. Language                                 : English4 ]* _1 Z$ `9 l2 N( A9 m  I% i# A
  64. Default                                  : Yes0 a. B. L, h- H4 w' Q% @4 j
  65. Forced                                   : Yes
    & z$ a3 T3 d5 W0 O$ V5 R( z
  66. Statistics Tags Issue                    : no_variable_data 1970-01-01 00:00:00 / no_variable_data 2010-02-22 21:41:29
    , j' J& P% f0 a% M4 D8 H
  67. FromStats_BitRate                        : 56
    ( X7 c, U0 u+ c3 E4 k$ B
  68. FromStats_Duration                       : 01:21:12.535000000
    " \; }; i. j2 z) c6 u4 e9 g
  69. FromStats_FrameCount                     : 8703 w) [% T1 b2 [: C% u  Y9 S
  70. FromStats_StreamSize                     : 34308
    * E1 Z! Q8 a) P' W
  71. 5 G5 n, `! q, W; T" w& W4 p
  72. Menu( }3 o9 b2 A9 y/ t
  73. 00:00:00.000                             : en:Chapter 01' ^" j3 O$ L! W& L# J
  74. 00:11:24.685                             : en:Chapter 029 ~* |' X$ E7 H+ n! r
  75. 00:26:16.827                             : en:Chapter 034 p0 a  Z" K. q! ?
  76. 00:33:18.498                             : en:Chapter 04
    4 c5 X4 y" o8 O0 r; h9 G
  77. 00:43:53.591                             : en:Chapter 05
    0 O$ |, n6 k( a
  78. 00:53:42.220                             : en:Chapter 06
    ! M. e6 h7 j& A3 Z( C4 S8 J
  79. 01:01:18.927                             : en:Chapter 07
    - O* z3 A  Q) q- e' h0 [" Y" }
  80. 01:11:28.994                             : en:Chapter 08
复制代码
4 e1 B/ e4 @  f# x
玛丽 Mary.1931.720p.BluRay.x264-NODLABS 4.37GB-2.png
8 Z# @. L8 K+ K( X) J9 z0 Q. e# h6 Y( f
7 C* [- i5 S' i
; Q7 ^9 z% a2 @6 B) t( J: }; X* }  e& v$ U4 x  }
  R! ^  A, V; s8 j: ~- ]" E
( H5 N2 o3 \, Z5 o# c. z% L
# ^; M% _; Y3 e6 ^4 W, ^
VIP会员免费任意下载本站所有资源!---点击开通
回复

使用道具 举报

级别:一线明星 Lv.8

注册时间
2019-4-24
最后登录
2020-1-19
听众
14
收听
0
主题
0
蓝光币
260 枚
贡献
0 点
发表于 2019-9-17 08:59:37 | 显示全部楼层
楼主发贴辛苦了,谢谢楼主分享!我觉得中国高清电影网是注册对了!
VIP会员免费任意下载本站所有资源!---点击开通
回复

使用道具 举报

懒得打字嘛,点击右侧快捷回复 【右侧内容,后台自定义】
您需要登录后才可以回帖 登录 | 立即注册

本版积分规则

Archiver|手机版|小黑屋| 中国高清网 |网站地图

GMT+8, 2020-1-20 11:11 , Processed in 0.235928 second(s), 37 queries .

Powered by HDchina X3.4

Copyright 2017-2019©HDchina.All right reserved

返回顶部 联系我们