查看: 14|回复: 1

[悬疑片] 玛丽 Mary.1931.720p.BluRay.x264-NODLABS 4.37GB

[复制链接]

 成长值: 2570

级别:资源管理组

注册时间
2017-10-20
最后登录
2019-9-21
听众
1
收听
0
主题
83026
蓝光币
49759 枚
贡献
7354 点
发表于 2019-9-13 10:45:56 | 显示全部楼层 |阅读模式
玛丽 Mary.1931.720p.BluRay.x264-NODLABS 4.37GB-1.png / t2 h  y* [7 [7 A: d+ M, x2 ]
4 X1 @( a$ `' i9 d. `0 \8 Q9 c! b" [& I
译  名 玛丽 / Murder
% I+ \% W( @' _片  名 Mary
4 T/ J0 H! [6 F6 U/ ?/ @年  代 19318 ~' M$ l" @* C( p7 A# e! F& i
产  地 德国 / 英国" K' J7 B( d0 s
类  别 悬疑 / 惊悚
6 y4 e4 z$ P' x语  言 德语
4 w- b7 G9 d2 r; Y* a8 z, {% U1 G上映日期 1931-03-02' \$ |" m4 Y' Z
IMDb评分  6.2/10 from 560 users/ ]5 i9 l5 ]6 x
IMDb链接  http://www.imdb.com/title/tt0021128, \1 h! [0 U& P0 n9 J8 @
豆瓣评分 0/10 from 0 users: z0 W) I4 u2 D7 h; H% F/ L& [
豆瓣链接 https://movie.douban.com/subject/3152392/  t: M; Y: b2 v2 Q  W4 m* E" d
片  长 78 分钟
: u) T) ^7 }8 a- E# ^0 t! N4 z导  演 阿尔弗雷德·希区柯克 Alfred Hitchcock" I$ }, o( o0 D& v) g2 [. ^+ m
编  剧 Clemence Dane / Herbert Juttke8 i1 q! v" p- q' \# b; a
主  演 阿弗莱德·阿贝尔 Alfred Abel
$ y7 x5 e, Y% `       Olga Tschechowa
# E  X5 S* m7 ^3 K       Paul Graetz" X- M) A9 Q- ?7 Q+ N" d6 ?5 ~( i
, H; m% X5 ~4 `, d8 x! @; [# m! q
) c6 C# J& x8 m; K' i  S
标  签 AlfredHitchcock | 希区柯克 | 1930s | 犯罪 | 德国 | 阿尔弗雷德·希区柯克 | 英国 | 悬疑
2 b0 T9 V+ ^, r0 [8 `1 |' R) P& W: m) V
简  介  
- h* T$ }0 T' i$ w* Z/ m3 ?2 r7 ]4 b& ^* N- f
  A juror in a murder trial, after voting to convict, has second thoughts and begins to investigate on his own before the execution. German version of "Murder."
3 s9 |, T9 K( Z2 K6 M
  1. Video
    * N' Q) l/ M1 v% v3 z* O
  2. ID                                       : 15 r/ y( R8 g+ y
  3. Format                                   : AVC. o# g9 Q  ]( P  ]
  4. Format/Info                              : Advanced Video Codec" f/ E2 M* s+ [" q
  5. Format profile                           : <a href="/cdn-cgi/l/email-protection" class="__cf_email__" data-cfemail="430b2a242b030f776d72">[email protected]</a>0 Y; L" X) ?# a" Z
  6. Format settings                          : CABAC / 5 Ref Frames
      I1 k7 c3 B5 _1 u/ ?/ Q4 F/ j5 V+ d
  7. Format settings, CABAC                   : Yes3 B8 J5 B0 [, G$ }$ w
  8. Format settings, Reference frames        : 5 frames
    9 i8 |  }3 ~/ @; y; E9 F, B4 R) e
  9. Codec ID                                 : V_MPEG4/ISO/AVC' n! p5 C8 e8 j+ [& W
  10. Duration                                 : 1 h 22 min! [& G5 D! I4 E1 V8 x7 D! X
  11. Bit rate                                 : 6 109 kb/s4 y& J0 j( G" o% M4 ~( J4 e
  12. Width                                    : 960 pixels  x7 V  g6 c- i
  13. Height                                   : 720 pixels( W6 U/ d4 |5 v' E3 g
  14. Display aspect ratio                     : 4:3
    % [  m$ @1 I& k: ^) K& \2 [
  15. Frame rate mode                          : Constant
    ) w7 ]0 S3 q( Y4 b9 |
  16. Frame rate                               : 23.976 (24000/1001) FPS' @+ Z* G! \9 j% b6 Z, _' A
  17. Color space                              : YUV
    ' A% w+ C, X1 v0 H
  18. Chroma subsampling                       : 4:2:0& g, s5 \" R0 Y3 ^0 c
  19. Bit depth                                : 8 bits! z+ R4 N! E0 p0 g9 Z7 ?
  20. Scan type                                : Progressive
    2 ?8 I' P/ i) h8 f$ F! E
  21. Bits/(Pixel*Frame)                       : 0.369
    " F- P' O- y; K* L
  22. Stream size                              : 3.42 GiB (78%)
      i3 n5 e8 G) |
  23. Writing library                          : x264 core 158 r2984 3759fcb! l% ]8 L" _* H: V1 p. c
  24. Encoding settings                        : cabac=1 / ref=5 / deblock=1:-3:-3 / analyse=0x3:0x113 / me=umh / subme=8 / psy=1 / psy_rd=1.10:0.00 / mixed_ref=1 / me_range=24 / chroma_me=1 / trellis=2 / 8x8dct=1 / cqm=0 / deadzone=21,11 / fast_pskip=1 / chroma_qp_offset=-2 / threads=22 / lookahead_threads=3 / sliced_threads=0 / nr=0 / decimate=1 / interlaced=0 / bluray_compat=0 / constrained_intra=0 / bframes=3 / b_pyramid=2 / b_adapt=2 / b_bias=0 / direct=3 / weightb=1 / open_gop=0 / weightp=2 / keyint=240 / keyint_min=24 / scenecut=40 / intra_refresh=0 / rc_lookahead=50 / rc=2pass / mbtree=1 / bitrate=6109 / ratetol=1.0 / qcomp=0.60 / qpmin=0 / qpmax=69 / qpstep=4 / cplxblur=20.0 / qblur=0.5 / ip_ratio=1.40 / aq=3:0.65) S2 ~; Q0 X6 Q7 t  [/ P  q
  25. Default                                  : Yes9 m+ L. w' |, o6 Y5 g$ }* W
  26. Forced                                   : No* P, C9 I. U& R+ m; A/ _  V( {* x
  27. Statistics Tags Issue                    : no_variable_data 1970-01-01 00:00:00 / no_variable_data 2010-02-22 21:41:29
    9 |5 \: k. J6 I6 {
  28. FromStats_BitRate                        : 6109053" l/ t5 t9 q9 O6 ]% [, @
  29. FromStats_Duration                       : 01:22:06.422000000+ t! t7 }; B9 I$ [! V) q  M7 h" b
  30. FromStats_FrameCount                     : 118116+ a* B/ I: X0 M# L+ I1 Z3 P
  31. FromStats_StreamSize                     : 37619718436 L# d3 v8 P. ^+ }  |  l8 I

  32. ) g5 y* B0 b0 L. L. [
  33. Audio
    & v: i4 E0 e$ N3 k
  34. ID                                       : 2, ?6 }; k7 k* C  P: {+ d1 t
  35. Format                                   : DTS
    0 u: B' E4 x# m8 A. f
  36. Format/Info                              : Digital Theater Systems; a6 C. D7 z, W; u( X
  37. Codec ID                                 : A_DTS" w5 G2 R$ L0 y
  38. Duration                                 : 1 h 22 min4 c# N; P5 n* I: P5 b+ E$ W& V$ \
  39. Bit rate mode                            : Constant0 G7 ^9 ^6 z# T' \+ j
  40. Bit rate                                 : 1 509 kb/s
    % b6 G' v( S/ Y7 {: X
  41. Channel(s)                               : 2 channels2 e  ]( k  U3 \$ q$ u+ {
  42. Channel layout                           : L R& \) w7 s$ g3 f, ~
  43. Sampling rate                            : 48.0 kHz
    % i  R9 n% T! v. ?% B3 ^8 d7 ~
  44. Frame rate                               : 93.750 FPS (512 SPF)
      X1 G! C2 c4 k+ A. u3 N2 n
  45. Bit depth                                : 24 bits+ p% ]8 I, C& i4 s% T
  46. Compression mode                         : Lossy
    5 K/ i  A8 |% P6 ]2 ]' ~
  47. Stream size                              : 886 MiB (20%)8 t& |# ]6 J, A% f9 O
  48. Language                                 : German/ E( e/ K7 Q& L. o2 J
  49. Default                                  : Yes+ U1 y+ n! R- i, A) U
  50. Forced                                   : No" }9 O" n4 r3 ?. g4 R
  51. Statistics Tags Issue                    : no_variable_data 1970-01-01 00:00:00 / no_variable_data 2010-02-22 21:41:29
    , w# l5 b3 a7 u' N5 [
  52. FromStats_BitRate                        : 15089998 @$ M$ \" F$ p0 V1 l5 m
  53. FromStats_Duration                       : 01:22:06.443000000
    ( X" E/ d, X/ B2 v9 P/ m
  54. FromStats_FrameCount                     : 461854  v9 b2 k& J# o. S+ L" _1 O+ |
  55. FromStats_StreamSize                     : 929250248
    0 v  Q1 `. \) R- j( U* `
  56. 2 @% t  R5 a1 t4 B7 b0 Q
  57. Text' h9 a9 A( N5 y% x5 D5 ~
  58. ID                                       : 3! u) y7 a- U, w: Q: ]8 n
  59. Format                                   : UTF-8
    " D3 b  x& e% m& f4 m/ _2 r
  60. Codec ID                                 : S_TEXT/UTF8
    3 S6 y2 X; q! w, ]% m
  61. Codec ID/Info                            : UTF-8 Plain Text3 Q! C( c+ \/ ?. J7 E+ ^: j/ g
  62. Title                                    : Forced  j- P8 ?8 B8 n/ M6 Y- k
  63. Language                                 : English* @% b$ d5 U& p  A; c
  64. Default                                  : Yes
    , ?+ ~. r1 B" i
  65. Forced                                   : Yes& @" x8 I1 f% v& c$ H1 m
  66. Statistics Tags Issue                    : no_variable_data 1970-01-01 00:00:00 / no_variable_data 2010-02-22 21:41:29
    5 j$ u; t6 F/ ~; e) U! K
  67. FromStats_BitRate                        : 56& X# ~% _+ T4 H: s7 W
  68. FromStats_Duration                       : 01:21:12.535000000, ^" E" j- ]7 f# k! x9 T
  69. FromStats_FrameCount                     : 870
    1 V, `* d* d4 u, X8 ~) L5 A& U
  70. FromStats_StreamSize                     : 343089 Q6 G& ?) B4 T1 K

  71. % O. p9 f3 `2 a6 C# N1 d4 A
  72. Menu
    6 H8 Z# b0 w; c. h
  73. 00:00:00.000                             : en:Chapter 016 z2 P7 A2 c/ r1 F$ r$ ?6 j
  74. 00:11:24.685                             : en:Chapter 02
    8 \3 F1 U6 b2 c# F# {1 }, w1 o& z
  75. 00:26:16.827                             : en:Chapter 03
    3 h0 @3 F  |3 c1 n. q
  76. 00:33:18.498                             : en:Chapter 04
    - F( c) E: X, b$ ~+ D
  77. 00:43:53.591                             : en:Chapter 05+ l$ T* f' a, N6 x; z; J( B
  78. 00:53:42.220                             : en:Chapter 06
    ( _% o0 C' T5 D! o+ @& a+ t$ A
  79. 01:01:18.927                             : en:Chapter 07% q9 C% X6 B( g3 h8 _4 P
  80. 01:11:28.994                             : en:Chapter 08
复制代码
: c6 F0 H/ i8 e! x
玛丽 Mary.1931.720p.BluRay.x264-NODLABS 4.37GB-2.png ; m; ]8 e% j9 b
- k6 W& ]6 y7 C' g; T3 x

) a: R" |0 v+ J; R) r" l
; F/ i4 R" B9 e2 s% a' {8 Q7 b9 N1 ~/ v$ t* s+ A6 C( a1 U7 V

1 f2 q$ N; a% \/ y/ b  t, ^
$ B) y5 w+ @* [) W& T4 D
VIP会员免费任意下载本站所有资源!---点击开通
回复

使用道具 举报

级别:领衔主演 Lv.6

注册时间
2019-4-24
最后登录
2019-9-21
听众
13
收听
0
主题
0
蓝光币
111 枚
贡献
0 点
发表于 4 天前 | 显示全部楼层
楼主发贴辛苦了,谢谢楼主分享!我觉得中国高清电影网是注册对了!
VIP会员免费任意下载本站所有资源!---点击开通
回复

使用道具 举报

懒得打字嘛,点击右侧快捷回复 【右侧内容,后台自定义】
您需要登录后才可以回帖 登录 | 立即注册

本版积分规则

QQ|Archiver|手机版|小黑屋| 中国高清网 |网站地图

GMT+8, 2019-9-21 21:03 , Processed in 0.460284 second(s), 39 queries .

Powered by HDchina X3.4

Copyright 2017-2019©HDchina.All right reserved

返回顶部 联系我们