查看: 11|回复: 0

[剧情片] 我的初恋女孩/初恋上女孩 First.Girl.I.Loved.2016.1080p.AMZN.WEBRip.DDP5.1.x264-monkee 6.70GB

[复制链接]

 成长值: 2570

级别:资源管理组

注册时间
2017-10-20
最后登录
2019-9-21
听众
1
收听
0
主题
83009
蓝光币
49621 枚
贡献
7337 点
发表于 2019-9-13 10:32:42 | 显示全部楼层 |阅读模式
我的初恋女孩/初恋上女孩 First.Girl.I.Loved.2016.1080p.AMZN.WEBRip.DDP5.1.x264-monkee 6.70GB-1.png

译  名 我的初恋女孩 / 初恋上女孩(台) / 我的初恋女友
片  名 First Girl I Loved
年  代 2016
产  地 美国
类  别 剧情 / 笑剧 / 恋爱 / 同性
语  言 英语 / 西班牙语
上映日期 2016-01-24(圣丹斯电影节) / 2016-10-18(美国)
IMDb评分  6.2/10 from 2598 users
IMDb链接  http://www.imdb.com/title/tt4262174
豆瓣评分 6.6/10 from 992 users
豆瓣链接 https://movie.douban.com/subject/26587723/
片  长 90分钟
导  演 克勒姆·桑加 Kerem Sanga
编  剧 克勒姆·桑加 Kerem Sanga
主  演 迪兰·格鲁拉 Dylan Gelula
       布里安娜·希德布兰德 Brianna Hildebrand
       马特奥·阿里亚斯 Mateo Arias
       帕梅拉·阿德龙 Pamela Adlon
       蒂姆·海德克 Tim Heidecker
       卡梅伦·埃斯波西托 Cameron Esposito
       埃里克·格里芬 Erik Griffin
       珍妮弗·普雷迪格 Jennifer Prediger
       安娜·德拉·克鲁兹 Ana Dela Cruz
       劳拉·帕塔拉诺 Laura Patalano


标  签 青春 | 同性 | 美国 | 恋爱 | LGBT | 长大 | les | 2016

简  介  

  17岁女孩安妮爱上了中学里最受接待的女生萨沙,并为此很是忧心。当她把这件事告诉了她的男闺蜜克里夫顿后,一向暗恋她的克里夫顿想尽法子停止阻止。
  本片由Kerem Sanga自编自导,按照其妹妹的实在履历改编。

获奖情况  

  第32届圣丹斯电影节(2016)
  观众奖 未来创新奖 克勒姆·桑加
  1. Video
  2. ID                                       : 1
  3. Format                                   : AVC
  4. Format/Info                              : Advanced Video Codec
  5. Format profile                           : <a href="/cdn-cgi/l/email-protection" class="__cf_email__" data-cfemail="dc94b5bbb49c90e8">[email protected]</a>
  6. Format settings                          : CABAC / 4 Ref Frames
  7. Format settings, CABAC                   : Yes
  8. Format settings, Reference frames        : 4 frames
  9. Codec ID                                 : V_MPEG4/ISO/AVC
  10. Duration                                 : 1 h 30 min
  11. Bit rate mode                            : Variable
  12. Bit rate                                 : 10.0 Mb/s
  13. Maximum bit rate                         : 15.0 Mb/s
  14. Width                                    : 1 920 pixels
  15. Height                                   : 800 pixels
  16. Display aspect ratio                     : 2.40:1
  17. Frame rate mode                          : Constant
  18. Frame rate                               : 23.976 (24000/1001) FPS
  19. Color space                              : YUV
  20. Chroma subsampling                       : 4:2:0
  21. Bit depth                                : 8 bits
  22. Scan type                                : Progressive
  23. Bits/(Pixel*Frame)                       : 0.272
  24. Stream size                              : 6.30 GiB (94%)
  25. Default                                  : Yes
  26. Forced                                   : No
  27. Color range                              : Limited
  28. Color primaries                          : BT.709
  29. Transfer characteristics                 : BT.709
  30. Matrix coefficients                      : BT.709

  31. Audio
  32. ID                                       : 2
  33. Format                                   : E-AC-3
  34. Format/Info                              : Enhanced AC-3
  35. Commercial name                          : Dolby Digital Plus
  36. Codec ID                                 : A_EAC3
  37. Duration                                 : 1 h 30 min
  38. Bit rate mode                            : Constant
  39. Bit rate                                 : 640 kb/s
  40. Channel(s)                               : 6 channels
  41. Channel layout                           : L R C LFE Ls Rs
  42. Sampling rate                            : 48.0 kHz
  43. Frame rate                               : 31.250 FPS (1536 SPF)
  44. Compression mode                         : Lossy
  45. Stream size                              : 412 MiB (6%)
  46. Language                                 : English
  47. Service kind                             : Complete Main
  48. Default                                  : Yes
  49. Forced                                   : No

  50. Text
  51. ID                                       : 3
  52. Format                                   : UTF-8
  53. Codec ID                                 : S_TEXT/UTF8
  54. Codec ID/Info                            : UTF-8 Plain Text
  55. Duration                                 : 1 h 26 min
  56. Bit rate                                 : 55 b/s
  57. Count of elements                        : 1256
  58. Stream size                              : 35.4 KiB (0%)
  59. Language                                 : English
  60. Default                                  : No
  61. Forced                                   : No
复制代码

我的初恋女孩/初恋上女孩 First.Girl.I.Loved.2016.1080p.AMZN.WEBRip.DDP5.1.x264-monkee 6.70GB-2.png 我的初恋女孩/初恋上女孩 First.Girl.I.Loved.2016.1080p.AMZN.WEBRip.DDP5.1.x264-monkee 6.70GB-3.png 我的初恋女孩/初恋上女孩 First.Girl.I.Loved.2016.1080p.AMZN.WEBRip.DDP5.1.x264-monkee 6.70GB-4.png 我的初恋女孩/初恋上女孩 First.Girl.I.Loved.2016.1080p.AMZN.WEBRip.DDP5.1.x264-monkee 6.70GB-5.png 我的初恋女孩/初恋上女孩 First.Girl.I.Loved.2016.1080p.AMZN.WEBRip.DDP5.1.x264-monkee 6.70GB-6.png 我的初恋女孩/初恋上女孩 First.Girl.I.Loved.2016.1080p.AMZN.WEBRip.DDP5.1.x264-monkee 6.70GB-7.png






VIP会员免费任意下载本站所有资源!---点击开通
回复

使用道具 举报

懒得打字嘛,点击右侧快捷回复 【右侧内容,后台自定义】
您需要登录后才可以回帖 登录 | 立即注册

本版积分规则

QQ|Archiver|手机版|小黑屋| 中国高清网 |网站地图

GMT+8, 2019-9-21 14:45 , Processed in 0.474380 second(s), 39 queries .

Powered by HDchina X3.4

Copyright 2017-2019©HDchina.All right reserved

返回顶部 联系我们