查看: 46|回复: 0

[纪录片] 最大的小小农场/我家有个开心农场 The.Biggest.Little.Farm.2018.1080p.BluRay.x264-PSYCHD 9.85GB

[复制链接]

 成长值: 2560

级别:资源管理组

注册时间
2017-10-20
最后登录
2019-9-19
听众
1
收听
0
主题
82921
蓝光币
49296 枚
贡献
7249 点
发表于 2019-9-12 21:02:09 | 显示全部楼层 |阅读模式
最大的小小农场/我家有个高兴农场 The.Biggest.Little.Farm.2018.1080p.BluRay.x264-PSYCHD 9.85GB-1.png

译  名 最大的小小农场 / 我家有个高兴农场(台)
片  名 The Biggest Little Farm
年  代 2018
产  地 美国
类  别 记载片
语  言 英语
上映日期 2018-09-01(特柳赖德电影节) / 2019-05-10(美国)
IMDb评分  8.0/10 from 1219 users
IMDb链接  http://www.imdb.com/title/tt8969332
豆瓣评分 9.1/10 from 389 users
豆瓣链接 https://movie.douban.com/subject/30330264/
片  长 91分钟
导  演 John Chester
主  演 John Chester
       Molly Chester


标  签 记载片 | 农场 | 美国 | 2019 | 美國 | Documentary | 美国电影 | 列传

简  介  

  只为了对峙对爱狗的许诺,约翰与茉莉这对疯狂夫妻干脆来去乡下开农场!本片用时十年追踪,随着这两位疯狂的胡想家和他们的爱狗,远赴乡下打造出与自然和谐共存,物种多样的高兴农场。他们种植了上万棵果树,两百种作物,并畜养各类动物好朋友,包括一只使人难忘的猪妈妈艾玛,和她的公鸡男友油头。当农场的生态系统被重新叫醒时,他们心目中的完善天下,起头出现连续串使人难以预感的疯狂改变!

获奖情况  

  第43届多伦多国际电影节(2018)
  观众挑选奖 记载片单元(提名)
  1. Video
  2. ID                                       : 1
  3. Format                                   : AVC
  4. Format/Info                              : Advanced Video Codec
  5. Format profile                           : <a href="/cdn-cgi/l/email-protection" class="__cf_email__" data-cfemail="246c4d434c6468100a15">[email protected]</a>
  6. Format settings                          : CABAC / 5 Ref Frames
  7. Format settings, CABAC                   : Yes
  8. Format settings, Reference frames        : 5 frames
  9. Codec ID                                 : V_MPEG4/ISO/AVC
  10. Duration                                 : 1 h 32 min
  11. Bit rate                                 : 13.8 Mb/s
  12. Width                                    : 1 920 pixels
  13. Height                                   : 808 pixels
  14. Display aspect ratio                     : 2.40:1
  15. Frame rate mode                          : Constant
  16. Frame rate                               : 23.976 (24000/1001) FPS
  17. Color space                              : YUV
  18. Chroma subsampling                       : 4:2:0
  19. Bit depth                                : 8 bits
  20. Scan type                                : Progressive
  21. Bits/(Pixel*Frame)                       : 0.371
  22. Stream size                              : 8.67 GiB (88%)
  23. Writing library                          : x264 core 158 r2984 3759fcb
  24. Encoding settings                        : cabac=1 / ref=5 / deblock=1:-3:-3 / analyse=0x3:0x113 / me=umh / subme=8 / psy=1 / psy_rd=1.00:0.00 / mixed_ref=1 / me_range=32 / chroma_me=1 / trellis=2 / 8x8dct=1 / cqm=0 / deadzone=21,11 / fast_pskip=1 / chroma_qp_offset=-2 / threads=25 / lookahead_threads=4 / sliced_threads=0 / nr=0 / decimate=1 / interlaced=0 / bluray_compat=0 / constrained_intra=0 / bframes=3 / b_pyramid=2 / b_adapt=2 / b_bias=0 / direct=3 / weightb=1 / open_gop=0 / weightp=2 / keyint=240 / keyint_min=24 / scenecut=40 / intra_refresh=0 / rc_lookahead=50 / rc=2pass / mbtree=1 / bitrate=13790 / ratetol=1.0 / qcomp=0.60 / qpmin=0 / qpmax=69 / qpstep=4 / cplxblur=20.0 / qblur=0.5 / ip_ratio=1.40 / aq=3:0.80
  25. Default                                  : Yes
  26. Forced                                   : No
  27. Statistics Tags Issue                    : no_variable_data 1970-01-01 00:00:00 / no_variable_data 2010-02-22 21:41:29
  28. FromStats_BitRate                        : 13788897
  29. FromStats_Duration                       : 01:32:02.934000000
  30. FromStats_FrameCount                     : 132418
  31. FromStats_StreamSize                     : 9519396621

  32. Audio
  33. ID                                       : 2
  34. Format                                   : DTS
  35. Format/Info                              : Digital Theater Systems
  36. Codec ID                                 : A_DTS
  37. Duration                                 : 1 h 32 min
  38. Bit rate mode                            : Constant
  39. Bit rate                                 : 1 509 kb/s
  40. Channel(s)                               : 6 channels
  41. Channel layout                           : C L R Ls Rs LFE
  42. Sampling rate                            : 48.0 kHz
  43. Frame rate                               : 93.750 FPS (512 SPF)
  44. Bit depth                                : 24 bits
  45. Compression mode                         : Lossy
  46. Stream size                              : 994 MiB (10%)
  47. Language                                 : English
  48. Default                                  : Yes
  49. Forced                                   : No
  50. Statistics Tags Issue                    : no_variable_data 1970-01-01 00:00:00 / no_variable_data 2010-02-22 21:41:29
  51. FromStats_BitRate                        : 1508999
  52. FromStats_Duration                       : 01:32:03.030000000
  53. FromStats_FrameCount                     : 517784
  54. FromStats_StreamSize                     : 1041781408

  55. Text #1
  56. ID                                       : 3
  57. Format                                   : UTF-8
  58. Codec ID                                 : S_TEXT/UTF8
  59. Codec ID/Info                            : UTF-8 Plain Text
  60. Language                                 : English
  61. Default                                  : No
  62. Forced                                   : No
  63. Statistics Tags Issue                    : no_variable_data 1970-01-01 00:00:00 / no_variable_data 2010-02-22 21:41:29
  64. FromStats_BitRate                        : 57
  65. FromStats_Duration                       : 01:30:36.390000000
  66. FromStats_FrameCount                     : 1033
  67. FromStats_StreamSize                     : 38893

  68. Text #2
  69. ID                                       : 4
  70. Format                                   : UTF-8
  71. Codec ID                                 : S_TEXT/UTF8
  72. Codec ID/Info                            : UTF-8 Plain Text
  73. Title                                    : SDH
  74. Language                                 : English
  75. Default                                  : No
  76. Forced                                   : No
  77. Statistics Tags Issue                    : no_variable_data 1970-01-01 00:00:00 / no_variable_data 2010-02-22 21:41:29
  78. FromStats_BitRate                        : 63
  79. FromStats_Duration                       : 01:30:40.936000000
  80. FromStats_FrameCount                     : 1144
  81. FromStats_StreamSize                     : 43522

  82. Menu
  83. 00:00:00.000                             : en:Chapter 01
  84. 00:10:00.600                             : en:Chapter 02
  85. 00:20:01.200                             : en:Chapter 03
  86. 00:30:01.800                             : en:Chapter 04
  87. 00:40:02.400                             : en:Chapter 05
  88. 00:50:03.000                             : en:Chapter 06
  89. 01:00:03.600                             : en:Chapter 07
  90. 01:10:04.200                             : en:Chapter 08
  91. 01:20:04.800                             : en:Chapter 09
  92. 01:30:05.400                             : en:Chapter 10
复制代码

最大的小小农场/我家有个高兴农场 The.Biggest.Little.Farm.2018.1080p.BluRay.x264-PSYCHD 9.85GB-2.png






VIP会员免费任意下载本站所有资源!---点击开通
回复

使用道具 举报

懒得打字嘛,点击右侧快捷回复 【右侧内容,后台自定义】
您需要登录后才可以回帖 登录 | 立即注册

本版积分规则

QQ|Archiver|手机版|小黑屋| 中国高清网 |网站地图

GMT+8, 2019-9-20 05:38 , Processed in 0.397086 second(s), 39 queries .

Powered by HDchina X3.4

Copyright 2017-2019©HDchina.All right reserved

返回顶部 联系我们