查看: 67|回复: 1

[剧情片] 众神与野兽/众神与恶魔 Gods.and.Monsters.1998.1080p.BluRay.X264-AMIABLE 9.83GB

[复制链接]

 成长值: 2570

级别:资源管理组

注册时间
2017-10-20
最后登录
2019-9-21
听众
1
收听
0
主题
83026
蓝光币
49779 枚
贡献
7354 点
发表于 2019-9-12 19:57:57 | 显示全部楼层 |阅读模式
众神与野兽/众神与恶魔 Gods.and.Monsters.1998.1080p.BluRay.X264-AMIABLE 9.83GB-1.png

译  名 众神与野兽 / 众神与恶魔 / 神与魔 / 魂断梦工场
片  名 Gods and Monsters
年  代 1998
产  地 美国 / 英国
类  别 剧情 / 同性 / 列传
语  言 英语 / 匈牙利语
上映日期 1998-11-04
IMDb评分  7.4/10 from 27669 users
IMDb链接  http://www.imdb.com/title/tt0120684
豆瓣评分 8.1/10 from 1970 users
豆瓣链接 https://movie.douban.com/subject/1297226/
片  长 105 分钟
导  演 比尔·康顿 Bill Condon
编  剧 比尔·康顿 Bill Condon
主  演 伊恩·麦克莱恩 Ian McKellen
       布兰登·费舍 Brendan Fraser
       琳恩·雷德格瑞夫 Lynn Redgrave
       洛丽塔·大卫多维奇 Lolita Davidovich
       大卫·杜克斯 David Dukes
       凯文·J·奥康纳 Kevin J. O'Connor
       马克·基利 Mark Kiely
       杰克·普罗特尼克 Jack Plotnick
       罗莎琳·艾尔斯 Rosalind Ayres
       杰克·贝茨 Jack Betts
       泰德·巴勃考克 Todd Babcock
       Cornelia Hayes O'Herlihy
       Brandon Kleyla
       帕梅拉·萨勒姆 Pamela Salem
       大卫米伯尔尼 David Millbern
       马丁·费雷罗 Martin Ferrero
       杰西·詹姆斯 Jesse James
       丽萨·达尔 Lisa Darr
       贾德森·米尔斯 Judson Mills
       约翰·盖汀斯 John Gatins
       柯蒂斯·哈灵顿 Curtis Harrington
       James Lecesne


标  签 英国 | 同道 | 列传 | 美国 | 同性 | 剧情 | 人性 | 1998

简  介  

  本片报告好莱坞著名大导演詹姆斯·威尔(伊安·麦克莱恩 Ian McKellen 饰)1957年的最初人生。这位缔造影史最惊悚脚色“科学怪人”的导演已淡出电影界, 正专心研讨绘画,闲时仍与一些男人频频约会。当管家汉娜(琳恩·雷德格瑞夫 Lynn Redgrave 饰)录用了新园丁、身强力壮的前水兵陆战队成员布恩(布兰登·费舍 Brendan Fraser 饰)后,威尔的爱好渐渐全数转移到布恩身上。威尔象一只爬向苍蝇的蜘蛛一样一点点接近布恩,引领后者一步步走进经心设想的圈套。本来威尔虽然已停止拍片,但自从见到布恩后,他发现布恩同自己片中的配角弗兰肯斯坦极为类似——不善言辞、纯真质朴且难以了解。威尔感应自己没法冷却心中的酷爱,只要布恩才能消除他的疾苦,他的计划就是诱使布恩终极杀死他本人,从而得以亲手实现平生中最完善的电影情节......
  本片经过年老好莱坞名导与年轻园丁的奥妙打仗,以及由此触发过往回忆的碎片,娓娓刻画奇妙而复杂的同性情愫,勾画出一个友谊、尊重、爱恋、顺从、厌恶、恐惧等感情清洗的天下。影片不竭穿插《科学怪人》的电影画面和台词,它奇妙地暗合了同性恋与科学怪人配合的被轻视性职位和恐惧处境。导演戏谑而安静的真假铺陈出一位同性恋导演的最初生命旅程,可谓黑色笑剧的佳构。《众神与野兽》获昔时奥斯卡最好改编剧本奖,同时入围最好男配角、最好女配角。本片也是以“甘道夫”形象风行天下的伊安·麦克莱恩爵士演艺生活中最重要也是最出色的一次归纳。

获奖情况  

  第71届奥斯卡金像奖(1999)
  最好男配角(提名) 伊恩·麦克莱恩
  最好女配角(提名) 琳恩·雷德格瑞夫
  最好改编剧本 比尔·康顿
  1. Video
  2. ID                                       : 1
  3. Format                                   : AVC
  4. Format/Info                              : Advanced Video Codec
  5. Format profile                           : <a href="/cdn-cgi/l/email-protection" class="__cf_email__" data-cfemail="c68eafa1ae868af2e8f7">[email protected]</a>
  6. Format settings                          : CABAC / 5 Ref Frames
  7. Format settings, CABAC                   : Yes
  8. Format settings, Reference frames        : 5 frames
  9. Codec ID                                 : V_MPEG4/ISO/AVC
  10. Duration                                 : 1 h 45 min
  11. Bit rate                                 : 12.9 Mb/s
  12. Width                                    : 1 920 pixels
  13. Height                                   : 824 pixels
  14. Display aspect ratio                     : 2.35:1
  15. Frame rate mode                          : Constant
  16. Frame rate                               : 23.976 (24000/1001) FPS
  17. Color space                              : YUV
  18. Chroma subsampling                       : 4:2:0
  19. Bit depth                                : 8 bits
  20. Scan type                                : Progressive
  21. Bits/(Pixel*Frame)                       : 0.341
  22. Stream size                              : 9.31 GiB (95%)
  23. Writing library                          : x264 core 158 r2984 3759fcb
  24. Encoding settings                        : cabac=1 / ref=5 / deblock=1:-3:-3 / analyse=0x3:0x113 / me=umh / subme=8 / psy=1 / psy_rd=1.10:0.00 / mixed_ref=1 / me_range=32 / chroma_me=1 / trellis=2 / 8x8dct=1 / cqm=0 / deadzone=21,11 / fast_pskip=1 / chroma_qp_offset=-2 / threads=26 / lookahead_threads=4 / sliced_threads=0 / nr=0 / decimate=1 / interlaced=0 / bluray_compat=0 / constrained_intra=0 / bframes=3 / b_pyramid=2 / b_adapt=2 / b_bias=0 / direct=3 / weightb=1 / open_gop=0 / weightp=2 / keyint=240 / keyint_min=24 / scenecut=40 / intra_refresh=0 / rc_lookahead=50 / rc=2pass / mbtree=1 / bitrate=12934 / ratetol=1.0 / qcomp=0.60 / qpmin=0 / qpmax=69 / qpstep=4 / cplxblur=20.0 / qblur=0.5 / ip_ratio=1.40 / aq=3:0.75
  25. Default                                  : Yes
  26. Forced                                   : No
  27. Statistics Tags Issue                    : no_variable_data 1970-01-01 00:00:00 / no_variable_data 2010-02-22 21:41:29
  28. FromStats_BitRate                        : 12924229
  29. FromStats_Duration                       : 01:45:15.351000000
  30. FromStats_FrameCount                     : 151417
  31. FromStats_StreamSize                     : 10202630838

  32. Audio
  33. ID                                       : 2
  34. Format                                   : AC-3
  35. Format/Info                              : Audio Coding 3
  36. Commercial name                          : Dolby Digital
  37. Codec ID                                 : A_AC3
  38. Duration                                 : 1 h 45 min
  39. Bit rate mode                            : Constant
  40. Bit rate                                 : 448 kb/s
  41. Channel(s)                               : 6 channels
  42. Channel layout                           : L R C LFE Ls Rs
  43. Sampling rate                            : 48.0 kHz
  44. Frame rate                               : 31.250 FPS (1536 SPF)
  45. Bit depth                                : 16 bits
  46. Compression mode                         : Lossy
  47. Stream size                              : 337 MiB (3%)
  48. Language                                 : English
  49. Service kind                             : Complete Main
  50. Default                                  : Yes
  51. Forced                                   : No
  52. Statistics Tags Issue                    : no_variable_data 1970-01-01 00:00:00 / no_variable_data 2010-02-22 21:41:29
  53. FromStats_BitRate                        : 448030
  54. FromStats_Duration                       : 01:45:15.264000000
  55. FromStats_FrameCount                     : 197352
  56. FromStats_StreamSize                     : 353678592

  57. Text #1
  58. ID                                       : 3
  59. Format                                   : UTF-8
  60. Codec ID                                 : S_TEXT/UTF8
  61. Codec ID/Info                            : UTF-8 Plain Text
  62. Language                                 : English
  63. Default                                  : No
  64. Forced                                   : No
  65. Statistics Tags Issue                    : no_variable_data 1970-01-01 00:00:00 / no_variable_data 2010-02-22 21:41:29
  66. FromStats_BitRate                        : 63
  67. FromStats_Duration                       : 01:38:54.595000000
  68. FromStats_FrameCount                     : 1710
  69. FromStats_StreamSize                     : 47050

  70. Text #2
  71. ID                                       : 4
  72. Format                                   : UTF-8
  73. Codec ID                                 : S_TEXT/UTF8
  74. Codec ID/Info                            : UTF-8 Plain Text
  75. Title                                    : SDH
  76. Language                                 : English
  77. Default                                  : No
  78. Forced                                   : No
  79. Statistics Tags Issue                    : no_variable_data 1970-01-01 00:00:00 / no_variable_data 2010-02-22 21:41:29
  80. FromStats_BitRate                        : 65
  81. FromStats_Duration                       : 01:41:07.853000000
  82. FromStats_FrameCount                     : 1859
  83. FromStats_StreamSize                     : 49792

  84. Menu
  85. 00:00:00.000                             : en:Chapter 01
  86. 00:09:32.572                             : en:Chapter 02
  87. 00:17:51.070                             : en:Chapter 03
  88. 00:26:08.776                             : en:Chapter 04
  89. 00:32:58.018                             : en:Chapter 05
  90. 00:44:33.296                             : en:Chapter 06
  91. 00:56:56.413                             : en:Chapter 07
  92. 01:05:09.906                             : en:Chapter 08
  93. 01:17:30.646                             : en:Chapter 09
  94. 01:26:45.200                             : en:Chapter 10
  95. 01:34:06.641                             : en:Chapter 11
  96. 01:41:42.096                             : en:Chapter 12
复制代码

众神与野兽/众神与恶魔 Gods.and.Monsters.1998.1080p.BluRay.X264-AMIABLE 9.83GB-2.png






VIP会员免费任意下载本站所有资源!---点击开通
回复

使用道具 举报

级别:荣升主角 Lv.5

注册时间
2018-2-26
最后登录
2019-9-21
听众
15
收听
0
主题
0
蓝光币
302 枚
贡献
0 点
发表于 2019-9-13 09:07:11 | 显示全部楼层

既然你诚信诚意的推荐了,那我就勉为其难的看看吧!中国高清电影网不走平凡路。
VIP会员免费任意下载本站所有资源!---点击开通
回复

使用道具 举报

懒得打字嘛,点击右侧快捷回复 【右侧内容,后台自定义】
您需要登录后才可以回帖 登录 | 立即注册

本版积分规则

QQ|Archiver|手机版|小黑屋| 中国高清网 |网站地图

GMT+8, 2019-9-21 21:42 , Processed in 0.294128 second(s), 39 queries .

Powered by HDchina X3.4

Copyright 2017-2019©HDchina.All right reserved

返回顶部 联系我们