查看: 8|回复: 0

[动作片] 圣徒/七海游侠 The.Saint.1997.1080p.AMZN.WEBRip.DDP5.1.x264-monkee 10.48GB

[复制链接]

 成长值: 2570

级别:资源管理组

注册时间
2017-10-20
最后登录
2019-9-21
听众
1
收听
0
主题
83026
蓝光币
49759 枚
贡献
7354 点
发表于 2019-9-12 19:46:30 | 显示全部楼层 |阅读模式
圣徒/七海游侠 The.Saint.1997.1080p.AMZN.WEBRip.DDP5.1.x264-monkee 10.48GB-1.png

译  名 圣徒 / 七海游侠 / 侠圣 / 神鬼至尊
片  名 The Saint
年  代 1997
产  地 美国
类  别 行动 / 恋爱 / 科幻 / 惊悚
语  言 英语 / 俄语
上映日期 1997-04-04(美国)
IMDb评分  6.2/10 from 58749 users
IMDb链接  http://www.imdb.com/title/tt0120053
豆瓣评分 7.0/10 from 1961 users
豆瓣链接 https://movie.douban.com/subject/1295708/
片  长 116分钟
导  演 Phillip Noyce
编  剧 乔纳森·汉斯雷 Jonathan Hensleigh / Wesley Strick
主  演 方·基默 Val Kilmer
       伊丽莎白·苏 Elisabeth Shue
       拉德·舍博德兹加 Rade Serbedzija
       Valeri Nikolayev
       亨利·古德曼 Henry Goodman
       艾伦·阿姆斯特朗 Alun Armstrong
       迈克尔·伯恩 Michael Byrne
       Yevgeni Lazarev
       Irina Apeksimova
       Lev Prygunov
       Charlotte Cornwell
       艾米莉·莫迪默 Emily Mortimer
       Lucija Serbedzija
       维利贝·托皮奇 Velibor Topic
       汤米·弗拉纳根 Tommy Flanagan
       Egor Pazenko
       Adam Smith


标  签 美国 | 行动 | 犯罪 | 侠盗 | 恋爱 | 美国电影 | 1997 | ValKilmer

简  介  

  孤儿西蒙(方·基默 Val Kilmer 饰)幼时生活在教会孤儿院中,那边留给他的,除了施洗者约翰的新名字与严苛的赏罚之外,还有撬门开锁的才能。多年今后,西蒙已经是著名的大盗,他计划张罗5000万以后脱胎换骨,享用人生。西承受命远赴莫斯科,窃取了政党魁首兼石油寡头伊万(拉德·舍博德兹加 Rade Serbedzija 饰)的芯片,自此与伊万父子“结缘”。西蒙为高额报答再度接管使命,而此次的店主居然是伊万父子,他们命西蒙窃取足以处理能源危机的核技术。西蒙乔装接近把握核技术的艾玛博士(伊丽莎白·苏 Elisabeth Shue 饰),与博士暗生情愫的同时,对付着伊万父子的辣手使命……
  1. Video
  2. ID                                       : 1
  3. Format                                   : AVC
  4. Format/Info                              : Advanced Video Codec
  5. Format profile                           : <a href="/cdn-cgi/l/email-protection" class="__cf_email__" data-cfemail="7830111f1038344c">[email protected]</a>
  6. Format settings                          : CABAC / 4 Ref Frames
  7. Format settings, CABAC                   : Yes
  8. Format settings, Reference frames        : 4 frames
  9. Codec ID                                 : V_MPEG4/ISO/AVC
  10. Duration                                 : 1 h 56 min
  11. Bit rate mode                            : Variable
  12. Bit rate                                 : 12.3 Mb/s
  13. Maximum bit rate                         : 15.0 Mb/s
  14. Width                                    : 1 920 pixels
  15. Height                                   : 816 pixels
  16. Display aspect ratio                     : 2.35:1
  17. Frame rate mode                          : Constant
  18. Frame rate                               : 23.976 (24000/1001) FPS
  19. Color space                              : YUV
  20. Chroma subsampling                       : 4:2:0
  21. Bit depth                                : 8 bits
  22. Scan type                                : Progressive
  23. Bits/(Pixel*Frame)                       : 0.327
  24. Stream size                              : 9.95 GiB (95%)
  25. Default                                  : Yes
  26. Forced                                   : No
  27. Color range                              : Limited
  28. Color primaries                          : BT.709
  29. Transfer characteristics                 : BT.709
  30. Matrix coefficients                      : BT.709

  31. Audio
  32. ID                                       : 2
  33. Format                                   : E-AC-3
  34. Format/Info                              : Enhanced AC-3
  35. Commercial name                          : Dolby Digital Plus
  36. Codec ID                                 : A_EAC3
  37. Duration                                 : 1 h 56 min
  38. Bit rate mode                            : Constant
  39. Bit rate                                 : 640 kb/s
  40. Channel(s)                               : 6 channels
  41. Channel layout                           : L R C LFE Ls Rs
  42. Sampling rate                            : 48.0 kHz
  43. Frame rate                               : 31.250 FPS (1536 SPF)
  44. Compression mode                         : Lossy
  45. Stream size                              : 532 MiB (5%)
  46. Language                                 : English
  47. Service kind                             : Complete Main
  48. Default                                  : Yes
  49. Forced                                   : No

  50. Text #1
  51. ID                                       : 3
  52. Format                                   : UTF-8
  53. Codec ID                                 : S_TEXT/UTF8
  54. Codec ID/Info                            : UTF-8 Plain Text
  55. Duration                                 : 1 h 53 min
  56. Bit rate                                 : 47 b/s
  57. Count of elements                        : 1384
  58. Stream size                              : 39.5 KiB (0%)
  59. Language                                 : English
  60. Default                                  : No
  61. Forced                                   : No

  62. Text #2
  63. ID                                       : 4
  64. Format                                   : UTF-8
  65. Codec ID                                 : S_TEXT/UTF8
  66. Codec ID/Info                            : UTF-8 Plain Text
  67. Duration                                 : 1 h 53 min
  68. Bit rate                                 : 51 b/s
  69. Count of elements                        : 1562
  70. Stream size                              : 42.7 KiB (0%)
  71. Title                                    : SDH
  72. Language                                 : English
  73. Default                                  : No
  74. Forced                                   : No
复制代码

圣徒/七海游侠 The.Saint.1997.1080p.AMZN.WEBRip.DDP5.1.x264-monkee 10.48GB-2.png 圣徒/七海游侠 The.Saint.1997.1080p.AMZN.WEBRip.DDP5.1.x264-monkee 10.48GB-3.png 圣徒/七海游侠 The.Saint.1997.1080p.AMZN.WEBRip.DDP5.1.x264-monkee 10.48GB-4.png






VIP会员免费任意下载本站所有资源!---点击开通
回复

使用道具 举报

懒得打字嘛,点击右侧快捷回复 【右侧内容,后台自定义】
您需要登录后才可以回帖 登录 | 立即注册

本版积分规则

QQ|Archiver|手机版|小黑屋| 中国高清网 |网站地图

GMT+8, 2019-9-21 20:58 , Processed in 0.387681 second(s), 39 queries .

Powered by HDchina X3.4

Copyright 2017-2019©HDchina.All right reserved

返回顶部 联系我们