查看: 11|回复: 0

[剧情片] 暂停 Pause.2018.1080p.AMZN.WEBRip.DDP2.0.x264-KamiKaze 2.97GB

[复制链接]

 成长值: 2570

级别:资源管理组

注册时间
2017-10-20
最后登录
2019-9-21
听众
1
收听
0
主题
83009
蓝光币
49631 枚
贡献
7337 点
发表于 2019-9-12 19:41:10 | 显示全部楼层 |阅读模式
停息 Pause.2018.1080p.AMZN.WEBRip.DDP2.0.x264-KamiKaze 2.97GB-1.png

译  名 停息 / Pafsi
片  名 Pause
年  代 2018
产  地 塞浦路斯 Cyprus / 希腊
类  别 剧情
语  言 希腊语 Greek
IMDb评分  7.9/10 from 323 users
IMDb链接  http://www.imdb.com/title/tt6590856
豆瓣评分 0/10 from 0 users
豆瓣链接 https://movie.douban.com/subject/30365499/
片  长 96分钟
导  演 Tonia Mishiali
编  剧 Tonia Mishiali / Anna Fotiadou
主  演 Stella Fyrogeni
       Andreas Vasileiou
       Popi Avraam


标  签 塞浦路斯 | 希腊 | 卡罗维发利电影节 | SIFF_Uptown | SIFF2019 | P-KarlovyVaryB入围西方之东 | 2018

简  介  

  Fueled by the arrival of a young painter, Elpida is a housewife who finds refuge from her monotonous life in her own fantasy world. As this fantasy world becomes filled with thoughts of vengeful violence, the lines blur between fantasy and reality. As events progress, Elpida is forced to question her own reality as she struggles to remember what really happened. ?Pause? is Tonia Mishiali’s debut as director of a feature film and is a personal movie about a woman’s struggle in an oppressive marriage. This movie is heavily influenced by Mishiali’s own upbringing in patriarchal Cyprus. ?Pause? is a drama with dark humour that sinks viewers into the world of Elpida and makes them question the position of women as mothers, wives and daughters.

获奖情况  

  第53届卡罗维发利国际电影节(2018)
  East of the West Award(提名)
  1. Video
  2. ID                                       : 1
  3. Format                                   : AVC
  4. Format/Info                              : Advanced Video Codec
  5. Format profile                           : <a href="/cdn-cgi/l/email-protection" class="__cf_email__" data-cfemail="e1a9888689a1add5">[email protected]</a>
  6. Format settings                          : CABAC / 4 Ref Frames
  7. Format settings, CABAC                   : Yes
  8. Format settings, Reference frames        : 4 frames
  9. Codec ID                                 : V_MPEG4/ISO/AVC
  10. Duration                                 : 1 h 36 min
  11. Bit rate mode                            : Constant
  12. Bit rate                                 : 4 202 kb/s
  13. Nominal bit rate                         : 10 000 kb/s
  14. Width                                    : 1 920 pixels
  15. Height                                   : 800 pixels
  16. Display aspect ratio                     : 2.40:1
  17. Frame rate mode                          : Constant
  18. Frame rate                               : 24.000 FPS
  19. Color space                              : YUV
  20. Chroma subsampling                       : 4:2:0
  21. Bit depth                                : 8 bits
  22. Scan type                                : Progressive
  23. Bits/(Pixel*Frame)                       : 0.114
  24. Stream size                              : 2.82 GiB (95%)
  25. Default                                  : Yes
  26. Forced                                   : No
  27. Color range                              : Limited
  28. Color primaries                          : BT.709
  29. Transfer characteristics                 : BT.709
  30. Matrix coefficients                      : BT.709

  31. Audio
  32. ID                                       : 2
  33. Format                                   : E-AC-3
  34. Format/Info                              : Enhanced AC-3
  35. Commercial name                          : Dolby Digital Plus
  36. Codec ID                                 : A_EAC3
  37. Duration                                 : 1 h 36 min
  38. Bit rate mode                            : Constant
  39. Bit rate                                 : 224 kb/s
  40. Channel(s)                               : 2 channels
  41. Channel layout                           : L R
  42. Sampling rate                            : 48.0 kHz
  43. Frame rate                               : 31.250 FPS (1536 SPF)
  44. Compression mode                         : Lossy
  45. Stream size                              : 154 MiB (5%)
  46. Service kind                             : Complete Main
  47. Default                                  : Yes
  48. Forced                                   : No

  49. Text
  50. ID                                       : 3
  51. Format                                   : UTF-8
  52. Codec ID                                 : S_TEXT/UTF8
  53. Codec ID/Info                            : UTF-8 Plain Text
  54. Duration                                 : 1 h 32 min
  55. Bit rate                                 : 21 b/s
  56. Count of elements                        : 483
  57. Stream size                              : 14.8 KiB (0%)
  58. Title                                    : SDH
  59. Language                                 : English
  60. Default                                  : Yes
  61. Forced                                   : No
复制代码

停息 Pause.2018.1080p.AMZN.WEBRip.DDP2.0.x264-KamiKaze 2.97GB-2.png 停息 Pause.2018.1080p.AMZN.WEBRip.DDP2.0.x264-KamiKaze 2.97GB-3.png 停息 Pause.2018.1080p.AMZN.WEBRip.DDP2.0.x264-KamiKaze 2.97GB-4.png






VIP会员免费任意下载本站所有资源!---点击开通
回复

使用道具 举报

懒得打字嘛,点击右侧快捷回复 【右侧内容,后台自定义】
您需要登录后才可以回帖 登录 | 立即注册

本版积分规则

QQ|Archiver|手机版|小黑屋| 中国高清网 |网站地图

GMT+8, 2019-9-21 15:00 , Processed in 0.395621 second(s), 39 queries .

Powered by HDchina X3.4

Copyright 2017-2019©HDchina.All right reserved

返回顶部 联系我们