查看: 47|回复: 0

[10bit.SDR] 阿拉丁/阿拉丁历险记 Aladdin.1992.2160p.BluRay.x265.10bit.SDR.DTS-HD.MA.TrueHD.7.1.Atmos-SWTYBLZ 20.84GB

[复制链接]

 成长值: 2560

级别:资源管理组

注册时间
2017-10-20
最后登录
2019-9-19
听众
1
收听
0
主题
82921
蓝光币
49296 枚
贡献
7249 点
发表于 2019-9-12 19:23:51 | 显示全部楼层 |阅读模式
阿拉丁/阿拉丁历险记 Aladdin.1992.2160p.BluRay.x265.10bit.SDR.DTS-HD.MA.TrueHD.7.1.Atmos-SWTYBLZ 20.84GB-1.png

译  名 阿拉丁 / 阿拉丁历险记
片  名 Aladdin
年  代 1992
产  地 美国
类  别 笑剧 / 动画 / 冒险
语  言 英语
上映日期 1992-11-25(美国)
IMDb评分  8.0/10 from 330431 users
IMDb链接  http://www.imdb.com/title/tt0103639
豆瓣评分 8.1/10 from 50831 users
豆瓣链接 https://movie.douban.com/subject/1299513/
片  长 90 分钟
导  演 罗恩·克莱蒙兹 Ron Clements / 约翰·马斯克 John Musker
编  剧 罗恩·克莱蒙兹 Ron Clements / 约翰·马斯克 John Musker / 泰德·艾略特 Ted Elliott / 特里·鲁西奥 Terry Rossio
主  演 斯科特·维内尔 Scott Weinger
       罗宾·威廉姆斯 Robin Williams
       琳达·拉金 Linda Larkin
       乔纳森·弗里曼 Jonathan Freeman
       弗兰克·维尔克 Frank Welker
       吉尔伯特·戈特弗雷德 Gilbert Gottfried
       查尔斯·阿德勒 Charles Adler
       杰克·安杰尔 Jack Angel
       科里·伯顿 Corey Burton
       吉姆·库宁斯 Jim Cummings
       詹妮弗·达林 Jennifer Darling
       黛比·戴瑞巴里 Debi Derryberry
       杰里·豪泽 Jerry Houser
       Vera Lockwood
       雪莉·琳恩 Sherry Lynn
       米凯·麦高万 Mickie McGowan
       菲尔·普洛克特 Phil Proctor
       布拉德·凯恩 Brad Kane
       丽娅·萨隆加 Lea Salonga
       哈尔·史姑娘 Hal Smith
       Douglas Seale
       Bruce Adler


标  签 动画 | 迪斯尼 | 美国 | 阿拉丁 | 动画片 | 1992 | 卡通 | 恋爱

简  介  

  阿拉伯少年阿拉丁不但具有忠厚的朋友山公阿布的友谊,还具有一条奇异的魔法飞毡,他们在闹市中过着无忧无虑的欢畅生活。一天,城堡里的公主厌倦了无聊透顶的皇宫生活,决议单独一人偷跑出来见识里面的十丈软红。偷跑出来的公主在闹市里碰到了阿拉丁,阿拉丁对她一见钟情。同一时辰,邪恶国师诡计操纵阿拉丁帮助自己找到能实现愿望的神灯,阿拉丁固然不愿束手待毙,因而,他的冒险之旅起头了。

获奖情况  

  第65届奥斯卡金像奖(1993)
  最好音效剪辑(提名) 马克·马基尼
  最好声响(提名) David J. Hudson / Doc Kane / Mel Metcalfe / 特里·波特
  最好原创配乐 艾伦·曼肯
  最好原创歌曲 艾伦·曼肯 / 蒂姆·赖斯
  最好原创歌曲(提名) 艾伦·曼肯 / 霍华德·阿什曼

  第47届英国电影学院奖(1994)
  电影奖 最好特别视觉结果(提名) Don Paul / Steve Goldberg
  电影奖 最好原创音乐(提名) 艾伦·曼肯

  第21届动画安妮奖(1993)
  最好动画长片
  1. Video
  2. ID                                       : 1
  3. Format                                   : HEVC
  4. Format/Info                              : High Efficiency Video Coding
  5. Format profile                           : Main <a href="/cdn-cgi/l/email-protection" class="__cf_email__" data-cfemail="0b3a3b4b473e253a">[email protected]</a>@High
  6. Codec ID                                 : V_MPEGH/ISO/HEVC
  7. Duration                                 : 1 h 30 min
  8. Bit rate                                 : 23.9 Mb/s
  9. Width                                    : 3 584 pixels
  10. Height                                   : 2 160 pixels
  11. Display aspect ratio                     : 5:3
  12. Frame rate mode                          : Constant
  13. Frame rate                               : 23.976 (24000/1001) FPS
  14. Color space                              : YUV
  15. Chroma subsampling                       : 4:2:0
  16. Bit depth                                : 10 bits
  17. Bits/(Pixel*Frame)                       : 0.129
  18. Stream size                              : 15.1 GiB (73%)
  19. Title                                    : Aladdin.1992.2160p.BluRay.x265.10bit.SDR.DTS-HD.MA.TrueHD.7.1.Atmos-SWTYBLZ
  20. Writing library                          : x265 3.0ed72af837053:[Windows][GCC 8.2.0][64 bit] 10bit
  21. Encoding settings                        : cpuid=1111039 / frame-threads=16 / numa-pools=44,44 / wpp / no-pmode / no-pme / no-psnr / no-ssim / log-level=2 / input-csp=1 / input-res=3584x2160 / interlace=0 / total-frames=130417 / level-idc=51 / high-tier=1 / uhd-bd=0 / ref=3 / no-allow-non-conformance / repeat-headers / annexb / aud / hrd / info / hash=0 / no-temporal-layers / no-open-gop / min-keyint=1 / keyint=24 / gop-lookahead=0 / bframes=6 / b-adapt=2 / b-pyramid / bframe-bias=0 / rc-lookahead=25 / lookahead-slices=4 / scenecut=40 / radl=0 / no-splice / no-intra-refresh / ctu=64 / min-cu-size=8 / no-rect / no-amp / max-tu-size=32 / tu-inter-depth=1 / tu-intra-depth=1 / limit-tu=0 / rdoq-level=0 / dynamic-rd=0.00 / no-ssim-rd / signhide / no-tskip / nr-intra=0 / nr-inter=0 / no-constrained-intra / strong-intra-smoothing / max-merge=2 / limit-refs=3 / no-limit-modes / me=1 / subme=2 / merange=57 / temporal-mvp / weightp / no-weightb / no-analyze-src-pics / deblock=1:1 / no-sao / no-sao-non-deblock / rd=3 / no-early-skip / rskip / no-fast-intra / no-tskip-fast / no-cu-lossless / no-b-intra / no-splitrd-skip / rdpenalty=0 / psy-rd=0.40 / psy-rdoq=0.00 / no-rd-refine / no-lossless / cbqpoffs=0 / crqpoffs=0 / rc=crf / crf=14.0 / qcomp=0.60 / qpstep=4 / stats-write=0 / stats-read=0 / vbv-maxrate=160000 / vbv-bufsize=160000 / vbv-init=0.9 / crf-max=0.0 / crf-min=0.0 / ipratio=1.40 / pbratio=1.30 / aq-mode=1 / aq-strength=0.40 / cutree / zone-count=0 / no-strict-cbr / qg-size=32 / no-rc-grain / qpmax=69 / qpmin=0 / no-const-vbv / sar=1 / overscan=0 / videoformat=5 / range=0 / colorprim=2 / transfer=2 / colormatrix=2 / chromaloc=0 / display-window=0 / max-cll=0,0 / min-luma=0 / max-luma=1023 / log2-max-poc-lsb=8 / vui-timing-info / vui-hrd-info / slices=1 / opt-qp-pps / opt-ref-list-length-pps / no-multi-pass-opt-rps / scenecut-bias=0.05 / no-opt-cu-delta-qp / no-aq-motion / no-hdr / no-hdr-opt / no-dhdr10-opt / no-idr-recovery-sei / analysis-reuse-level=5 / scale-factor=0 / refine-intra=0 / refine-inter=0 / refine-mv=0 / refine-ctu-distortion=0 / no-limit-sao / ctu-info=0 / no-lowpass-dct / refine-analysis-type=0 / copy-pic=1 / max-ausize-factor=1.0 / no-dynamic-refine / no-single-sei / no-hevc-aq / qp-adaptation-range=1.00
  22. Default                                  : Yes
  23. Forced                                   : No

  24. Audio #1
  25. ID                                       : 2
  26. Format                                   : MLP FBA 16-ch
  27. Format/Info                              : Meridian Lossless Packing FBA with 16-channel presentation
  28. Commercial name                          : Dolby TrueHD with Dolby Atmos
  29. Codec ID                                 : A_TRUEHD
  30. Duration                                 : 1 h 30 min
  31. Bit rate mode                            : Variable
  32. Bit rate                                 : 4 768 kb/s
  33. Maximum bit rate                         : 6 816 kb/s
  34. Channel(s)                               : 8 channels
  35. Channel layout                           : L R C LFE Ls Rs Lb Rb
  36. Sampling rate                            : 48.0 kHz
  37. Frame rate                               : 1 200.000 FPS (40 SPF)
  38. Compression mode                         : Lossless
  39. Stream size                              : 3.02 GiB (15%)
  40. Title                                    : Aladdin.1992.2160p.BluRay.x265.10bit.SDR.DTS-HD.MA.TrueHD.7.1.Atmos-SWTYBLZ
  41. Language                                 : English
  42. Default                                  : Yes
  43. Forced                                   : No
  44. Number of dynamic objects                : 13
  45. Bed channel count                        : 1 channel
  46. Bed channel configuration                : LFE

  47. Audio #2
  48. ID                                       : 3
  49. Format                                   : DTS XLL
  50. Format/Info                              : Digital Theater Systems
  51. Commercial name                          : DTS-HD Master Audio
  52. Codec ID                                 : A_DTS
  53. Duration                                 : 1 h 30 min
  54. Bit rate mode                            : Variable
  55. Bit rate                                 : 3 387 kb/s
  56. Channel(s)                               : 8 channels
  57. Channel layout                           : C L R LFE Lb Rb Lss Rss
  58. Sampling rate                            : 48.0 kHz
  59. Frame rate                               : 93.750 FPS (512 SPF)
  60. Bit depth                                : 24 bits
  61. Compression mode                         : Lossless
  62. Stream size                              : 2.15 GiB (10%)
  63. Title                                    : Aladdin.1992.2160p.BluRay.x265.10bit.SDR.DTS-HD.MA.TrueHD.7.1.Atmos-SWTYBLZ
  64. Language                                 : English
  65. Default                                  : No
  66. Forced                                   : No

  67. Audio #3
  68. ID                                       : 4
  69. Format                                   : AC-3
  70. Format/Info                              : Audio Coding 3
  71. Commercial name                          : Dolby Digital
  72. Codec ID                                 : A_AC3
  73. Duration                                 : 1 h 30 min
  74. Bit rate mode                            : Constant
  75. Bit rate                                 : 640 kb/s
  76. Channel(s)                               : 6 channels
  77. Channel layout                           : L R C LFE Ls Rs
  78. Sampling rate                            : 48.0 kHz
  79. Frame rate                               : 31.250 FPS (1536 SPF)
  80. Bit depth                                : 16 bits
  81. Compression mode                         : Lossy
  82. Stream size                              : 415 MiB (2%)
  83. Title                                    : Aladdin.1992.2160p.BluRay.x265.10bit.SDR.DTS-HD.MA.TrueHD.7.1.Atmos-SWTYBLZ
  84. Language                                 : English
  85. Service kind                             : Complete Main
  86. Default                                  : No
  87. Forced                                   : No

  88. Text #1
  89. ID                                       : 5
  90. Format                                   : UTF-8
  91. Codec ID                                 : S_TEXT/UTF8
  92. Codec ID/Info                            : UTF-8 Plain Text
  93. Duration                                 : 1 h 25 min
  94. Bit rate                                 : 64 b/s
  95. Count of elements                        : 1340
  96. Stream size                              : 40.4 KiB (0%)
  97. Title                                    : English-SRT
  98. Language                                 : English
  99. Default                                  : Yes
  100. Forced                                   : No

  101. Text #2
  102. ID                                       : 6
  103. Format                                   : PGS
  104. Muxing mode                              : zlib
  105. Codec ID                                 : S_HDMV/PGS
  106. Codec ID/Info                            : Picture based subtitle format used on BDs/HD-DVDs
  107. Duration                                 : 1 h 25 min
  108. Bit rate                                 : 45.4 kb/s
  109. Count of elements                        : 2938
  110. Stream size                              : 27.6 MiB (0%)
  111. Title                                    : English-PGS
  112. Language                                 : English
  113. Default                                  : No
  114. Forced                                   : No

  115. Text #3
  116. ID                                       : 7
  117. Format                                   : PGS
  118. Muxing mode                              : zlib
  119. Codec ID                                 : S_HDMV/PGS
  120. Codec ID/Info                            : Picture based subtitle format used on BDs/HD-DVDs
  121. Duration                                 : 1 h 25 min
  122. Bit rate                                 : 35.7 kb/s
  123. Count of elements                        : 2264
  124. Stream size                              : 21.7 MiB (0%)
  125. Title                                    : French-PGS
  126. Language                                 : French
  127. Default                                  : No
  128. Forced                                   : No

  129. Text #4
  130. ID                                       : 8
  131. Format                                   : PGS
  132. Muxing mode                              : zlib
  133. Codec ID                                 : S_HDMV/PGS
  134. Codec ID/Info                            : Picture based subtitle format used on BDs/HD-DVDs
  135. Duration                                 : 1 h 29 min
  136. Bit rate                                 : 36.0 kb/s
  137. Count of elements                        : 2360
  138. Stream size                              : 23.0 MiB (0%)
  139. Title                                    : Spanish-PGS
  140. Language                                 : Spanish
  141. Default                                  : No
  142. Forced                                   : No

  143. Text #5
  144. ID                                       : 9
  145. Format                                   : PGS
  146. Muxing mode                              : zlib
  147. Codec ID                                 : S_HDMV/PGS
  148. Codec ID/Info                            : Picture based subtitle format used on BDs/HD-DVDs
  149. Duration                                 : 1 h 29 min
  150. Bit rate                                 : 29.0 kb/s
  151. Count of elements                        : 2332
  152. Stream size                              : 18.7 MiB (0%)
  153. Title                                    : Japanese-PGS
  154. Language                                 : Japanese
  155. Default                                  : No
  156. Forced                                   : No

  157. Text #6
  158. ID                                       : 10
  159. Format                                   : PGS
  160. Muxing mode                              : zlib
  161. Codec ID                                 : S_HDMV/PGS
  162. Codec ID/Info                            : Picture based subtitle format used on BDs/HD-DVDs
  163. Duration                                 : 1 h 16 min
  164. Bit rate                                 : 67 b/s
  165. Count of elements                        : 6
  166. Stream size                              : 37.9 KiB (0%)
  167. Title                                    : French-FORCED-PGS
  168. Language                                 : French
  169. Default                                  : No
  170. Forced                                   : No

  171. Text #7
  172. ID                                       : 11
  173. Format                                   : PGS
  174. Muxing mode                              : zlib
  175. Codec ID                                 : S_HDMV/PGS
  176. Codec ID/Info                            : Picture based subtitle format used on BDs/HD-DVDs
  177. Duration                                 : 1 h 16 min
  178. Bit rate                                 : 74 b/s
  179. Count of elements                        : 6
  180. Stream size                              : 41.3 KiB (0%)
  181. Title                                    : Spanish-FORCED-PGS
  182. Language                                 : Spanish
  183. Default                                  : No
  184. Forced                                   : No

  185. Text #8
  186. ID                                       : 12
  187. Format                                   : PGS
  188. Muxing mode                              : zlib
  189. Codec ID                                 : S_HDMV/PGS
  190. Codec ID/Info                            : Picture based subtitle format used on BDs/HD-DVDs
  191. Duration                                 : 30 min 9 s
  192. Bit rate                                 : 90 b/s
  193. Count of elements                        : 4
  194. Stream size                              : 20.0 KiB (0%)
  195. Title                                    : Japanese-FORCED-PGS
  196. Language                                 : Japanese
  197. Default                                  : No
  198. Forced                                   : No

  199. Menu
  200. 00:00:00.000                             : en:Chapter 01
  201. 00:03:06.728                             : en:Chapter 02
  202. 00:06:47.949                             : en:Chapter 03
  203. 00:12:37.923                             : en:Chapter 04
  204. 00:16:35.285                             : en:Chapter 05
  205. 00:19:39.720                             : en:Chapter 06
  206. 00:23:51.138                             : en:Chapter 07
  207. 00:27:39.991                             : en:Chapter 08
  208. 00:31:22.297                             : en:Chapter 09
  209. 00:34:56.010                             : en:Chapter 10
  210. 00:37:20.738                             : en:Chapter 11
  211. 00:41:14.054                             : en:Chapter 12
  212. 00:43:33.402                             : en:Chapter 13
  213. 00:47:17.709                             : en:Chapter 14
  214. 00:48:40.626                             : en:Chapter 15
  215. 00:55:20.567                             : en:Chapter 16
  216. 00:57:38.413                             : en:Chapter 17
  217. 01:03:05.573                             : en:Chapter 18
  218. 01:07:25.583                             : en:Chapter 19
  219. 01:10:08.078                             : en:Chapter 20
  220. 01:10:42.321                             : en:Chapter 21
  221. 01:15:32.194                             : en:Chapter 22
  222. 01:18:58.275                             : en:Chapter 23
  223. 01:21:41.771                             : en:Chapter 24
  224. 01:25:44.222                             : en:Chapter 25
复制代码

阿拉丁/阿拉丁历险记 Aladdin.1992.2160p.BluRay.x265.10bit.SDR.DTS-HD.MA.TrueHD.7.1.Atmos-SWTYBLZ 20.84GB-2.png 阿拉丁/阿拉丁历险记 Aladdin.1992.2160p.BluRay.x265.10bit.SDR.DTS-HD.MA.TrueHD.7.1.Atmos-SWTYBLZ 20.84GB-3.png 阿拉丁/阿拉丁历险记 Aladdin.1992.2160p.BluRay.x265.10bit.SDR.DTS-HD.MA.TrueHD.7.1.Atmos-SWTYBLZ 20.84GB-4.png 阿拉丁/阿拉丁历险记 Aladdin.1992.2160p.BluRay.x265.10bit.SDR.DTS-HD.MA.TrueHD.7.1.Atmos-SWTYBLZ 20.84GB-5.png 阿拉丁/阿拉丁历险记 Aladdin.1992.2160p.BluRay.x265.10bit.SDR.DTS-HD.MA.TrueHD.7.1.Atmos-SWTYBLZ 20.84GB-6.png 阿拉丁/阿拉丁历险记 Aladdin.1992.2160p.BluRay.x265.10bit.SDR.DTS-HD.MA.TrueHD.7.1.Atmos-SWTYBLZ 20.84GB-7.png 阿拉丁/阿拉丁历险记 Aladdin.1992.2160p.BluRay.x265.10bit.SDR.DTS-HD.MA.TrueHD.7.1.Atmos-SWTYBLZ 20.84GB-8.png







本帖隐藏的下载地址需要VIP会员才可阅读,您需要升级才可阅读,点击这里升级VIP

VIP会员免费任意下载本站所有资源!---点击开通
回复

使用道具 举报

懒得打字嘛,点击右侧快捷回复 【右侧内容,后台自定义】
您需要登录后才可以回帖 登录 | 立即注册

本版积分规则

QQ|Archiver|手机版|小黑屋| 中国高清网 |网站地图

GMT+8, 2019-9-20 05:26 , Processed in 1.532225 second(s), 39 queries .

Powered by HDchina X3.4

Copyright 2017-2019©HDchina.All right reserved

返回顶部 联系我们