查看: 90|回复: 2

[喜剧片] 昨日奇迹 Yesterday.2019.720p.BluRay.x264-DRONES 4.38GB

[复制链接]

 成长值: 3800

级别:资源管理组

注册时间
2017-10-20
最后登录
2020-1-17
听众
1
收听
0
主题
90421
蓝光币
82547 枚
贡献
14783 点
发表于 2019-9-12 19:16:11 | 显示全部楼层 |阅读模式
昨日奇迹 Yesterday.2019.720p.BluRay.x264-DRONES 4.38GB-1.png " S( i% N3 R4 B& J1 H  S

, J' y, C# v$ |- s; u  I译  名 昨日奇迹 / All You Need is Love / 你需要的只是爱 / 昨天 / 昨日 / 缘來自昨天(港) / 靠谱歌王(台)
, }: `  n9 L, T& q片  名 Yesterday* r; s6 n/ [+ Q: d
年  代 2019
5 ^. o, r- o$ r! Y产  地 英国7 n3 r2 b7 I3 U$ X
类  别 笑剧 / 音乐 / 奇异
. M9 ]( G- q2 s8 A语  言 英语
3 k# p  K/ @+ c( a$ B0 S" M) y4 a上映日期 2019-05-05(翠贝卡电影节) / 2019-06-28(英国) / 2019-08-16(中国大陆)5 Z& l3 j2 E1 ~; ^+ C& Z8 b
IMDb评分  7.0/10 from 31211 users( c* l. a$ W9 b# E; ^8 Z
IMDb链接  http://www.imdb.com/title/tt8079248
; ?1 f0 Y6 W+ T+ U2 f豆瓣评分 6.6/10 from 3863 users
- l% U0 F: h+ N豆瓣链接 https://movie.douban.com/subject/30165034/  i5 j: |* Y  s! j0 X
片  长 116分钟' O3 t/ \# N! G- u
导  演 丹尼·博伊尔 Danny Boyle
$ {& R# n+ S. u编  剧 杰克·巴斯 Jack Barth / 理查德·柯蒂斯 Richard Curtis
! \& Y: G9 J+ ^8 z( O- \主  演 希米什·帕特尔 Himesh Patel  ~% i1 t. Y9 e4 f0 Z
       莉莉·詹姆斯 Lily James
, T+ p0 T5 H: Z( P; {. P% Z/ G; r       艾德·希兰 Ed Sheeran! H' _+ j5 I) F; K
       凯特·麦克金农 Kate McKinnon
" W6 U/ V) h6 h0 _; C* n/ _       阿历克斯·阿诺 Alexander Arnold
+ _7 N: U, q- B% b       乔尔·弗莱 Joel Fry
, M6 R0 R* \: y' {" J4 ]0 X       詹姆斯·柯登 James Corden2 A6 h( u* _5 C0 v
       卡米利·陈 Camille Chen8 N0 m& M/ G: f
       拉蒙尼·莫里斯 Lamorne Morris
, n5 v6 j9 Q8 a' ^% U       索菲娅·迪·马蒂诺 Sophia Di Martino
& y0 }8 o8 T2 g9 s$ G" s3 j  h+ r+ a       卡米拉·拉瑟福德 Camilla Rutherford
7 B7 i2 c, l! l: Q% F2 J       艾利斯·查普尔 Ellise Chappell( f2 _) K; F' X
       莎拉·兰卡夏尔 Sarah Lancashire/ W2 U) Y0 E. C: ]
       多米尼克·科尔曼 Dominic Coleman( j7 d9 X* k6 ^! q
       玛丽安娜·斯皮瓦克 Maryana Spivak
' l: M- k% m: L       詹妮弗·阿尔莫 Jennifer Armour
0 E3 ^2 v: [/ s" D& r       安娜·德·阿玛斯 Ana de Armas
  ~- r) W; q7 U! b& m+ Z) L, a       哈廷·帕特尔 Hiten Patel
) m  o5 ]6 y0 W$ X8 T' K+ c       阿图尔·夏尔马 Atul Sharma3 H: R8 c7 a; T6 U3 g
       马诺伊·阿南德 Manoj Anand
5 K+ @( b9 R2 X' _, M       哈里·米歇尔 Harry Michell
, O1 ^2 R, ^2 v% [: s- A       珊妮·姚 Sunny Yeo/ r  c" x1 \, \$ J# R
       乔希·特雷特 Josh Trett- F9 g+ ?3 T2 x1 X7 V9 x
       西蒙·P·爱德华兹 Simon P Edwards
5 v0 `0 v1 E9 N# C4 K0 `  A
; F( G. z% R9 w5 z' B  W! X2 J1 L0 P# _& _' K1 M
标  签 披头士 | 音乐 | 英国 | 笑剧 | 2019 | 摇滚 | 奇异 | 平行穿越+ |. N# y7 f) i: p
9 b, p9 q2 I7 D0 p
简  介  
+ m5 i6 |6 U# Q7 J2 ^% Q  R5 r3 `% F
  杰克(希米什·帕特尔 饰)是英国一个海滨小镇上苦苦挣扎的创作型歌手,有着好友艾莉(莉莉·詹姆斯 饰)的一向支持。在一次奥秘的全球大停电中发生了一路希奇的公交车变乱,杰克醒来后发现披头士乐队底子从未存在过。他正面临着很是复杂的题目。% c, j( t* [+ P9 Y. {
  1. Video
    # a+ ~( j1 r+ ~  h: O
  2. ID                                       : 18 h! x- o* k& }* J- K6 X6 z  @8 L
  3. Format                                   : AVC
    1 W% t! v2 D" ~. o' Y# j' n& \. W
  4. Format/Info                              : Advanced Video Codec
    8 V0 a$ P* i0 S  L' d( E6 e" n9 R. @
  5. Format profile                           : <a href="/cdn-cgi/l/email-protection" class="__cf_email__" data-cfemail="4e062729260e027a607f">[email protected]</a>& D) V5 h. n5 z* ~* f2 t! ^4 ]' t
  6. Format settings                          : CABAC / 5 Ref Frames2 X& h$ h5 m$ `' @: u4 Q! c( P
  7. Format settings, CABAC                   : Yes
    # x: b' I  W3 l4 o+ d( o; P) q
  8. Format settings, Reference frames        : 5 frames! L& Y" h! a$ }1 l- p
  9. Codec ID                                 : V_MPEG4/ISO/AVC0 f$ v; W' q- M! Q1 G
  10. Duration                                 : 1 h 56 min
    " C% F* t  E7 ?! F$ M4 ]
  11. Bit rate                                 : 4 742 kb/s$ g. ^9 X! m$ A) b
  12. Width                                    : 1 280 pixels
    & |0 x8 R& h6 }- L
  13. Height                                   : 536 pixels
    & h5 j, n4 s* v$ `
  14. Display aspect ratio                     : 2.40:1+ n' E( h) K! }, h) H3 r
  15. Frame rate mode                          : Constant
    3 R0 D, @2 Q/ b$ J. S5 V, a
  16. Frame rate                               : 23.976 FPS
    / }/ |8 d: T# F/ v% K1 |) Z
  17. Color space                              : YUV
    " Y# B8 w& Y! z5 e# C3 q/ k
  18. Chroma subsampling                       : 4:2:0
    " s4 \% |4 B  o. _7 W8 w
  19. Bit depth                                : 8 bits( r& Z$ t/ Z, U" @
  20. Scan type                                : Progressive
    8 B3 l5 D- z# M( \$ A) g! _
  21. Bits/(Pixel*Frame)                       : 0.288
    . j7 l0 P6 y1 G& m! ]
  22. Stream size                              : 3.85 GiB (88%)
    3 E2 P/ E: `5 C
  23. Writing library                          : x264 core 158 r2984 3759fcb6 \; M& C4 o" L  K- ^9 c' w& I
  24. Encoding settings                        : cabac=1 / ref=5 / deblock=1:-3:-3 / analyse=0x3:0x113 / me=umh / subme=8 / psy=1 / psy_rd=1.00:0.00 / mixed_ref=1 / me_range=16 / chroma_me=1 / trellis=1 / 8x8dct=1 / cqm=0 / deadzone=21,11 / fast_pskip=1 / chroma_qp_offset=-2 / threads=17 / lookahead_threads=2 / sliced_threads=0 / nr=0 / decimate=1 / interlaced=0 / bluray_compat=0 / constrained_intra=0 / bframes=3 / b_pyramid=2 / b_adapt=1 / b_bias=0 / direct=3 / weightb=1 / open_gop=0 / weightp=2 / keyint=250 / keyint_min=23 / scenecut=40 / intra_refresh=0 / rc_lookahead=50 / rc=2pass / mbtree=1 / bitrate=4742 / ratetol=1.0 / qcomp=0.60 / qpmin=0 / qpmax=69 / qpstep=4 / cplxblur=20.0 / qblur=0.5 / ip_ratio=1.40 / aq=1:1.00$ h2 D* p- l- Q8 }4 I' n$ k# \
  25. Language                                 : English
    ! R( p, v1 a4 X& O$ v
  26. Default                                  : Yes
    * _7 x; F# n4 i/ T% T# a4 y5 e
  27. Forced                                   : No6 X1 ]5 t, K% E; I$ M& D! ~: l
  28. ' p. K% S, L! v4 M+ W; c
  29. Audio0 v2 ^. l( n# a# c) f1 w
  30. ID                                       : 23 H3 G+ w3 ~) x4 T! Z8 j* Z
  31. Format                                   : AC-3: L: M5 Z& b# O  H, e1 z( h
  32. Format/Info                              : Audio Coding 3
    ! @" z6 C. V6 G: E
  33. Commercial name                          : Dolby Digital
    / @- J7 T3 N' J, P9 a5 J5 n
  34. Codec ID                                 : A_AC3
    1 l6 i  y& O( W; ?0 K0 a
  35. Duration                                 : 1 h 56 min
    # j8 f$ L$ z* n4 o8 h
  36. Bit rate mode                            : Constant
    - J# J0 p5 _0 M; O  M
  37. Bit rate                                 : 640 kb/s: ~1 ]4 k. m1 x
  38. Channel(s)                               : 6 channels$ Y2 Y: ^- G: ]- _$ `' b
  39. Channel layout                           : L R C LFE Ls Rs* H: Y- r% `, B
  40. Sampling rate                            : 48.0 kHz$ k6 G# W- Y  D, w, D
  41. Frame rate                               : 31.250 FPS (1536 SPF)' f$ q3 a/ z8 c& |- R* c
  42. Bit depth                                : 16 bits
    9 A6 J5 A! M3 X9 v# d, w8 ^
  43. Compression mode                         : Lossy
    ; K/ j& d7 |$ S' C! _5 G+ u. B
  44. Stream size                              : 532 MiB (12%)
    : ^' i1 L8 A, H% u
  45. Language                                 : English
    5 I; k9 O2 a- E* y, G
  46. Service kind                             : Complete Main
    4 y. T. t: p5 m
  47. Default                                  : Yes
    " S  @6 H5 q  T0 a; \1 d
  48. Forced                                   : No" p; c" a5 F( H  q
  49. 6 e1 n- s) Q# i" w* l9 q
  50. Menu
    & M9 R  {( @( o: r
  51. 00:00:00.000                             : en:00:00:00.000' o: }/ L( I/ m+ ^7 D% V
  52. 00:06:16.668                             : en:00:06:16.6681 }, F$ r- \+ B: C3 u) f4 i" ^
  53. 00:11:19.679                             : en:00:11:19.679
    + ]' |0 c" d' y
  54. 00:16:13.097                             : en:00:16:13.097
    7 }( v- M" Z/ E& Z/ `8 ~4 I7 P' M+ }
  55. 00:21:28.287                             : en:00:21:28.2873 v$ b+ K! h2 }% }( f
  56. 00:27:04.540                             : en:00:27:04.540
    # r$ J0 O4 g+ O4 ]
  57. 00:33:31.885                             : en:00:33:31.885
    . Q* N8 g$ V2 Y, m
  58. 00:38:55.083                             : en:00:38:55.083
    # G" V* T5 a6 n' a
  59. 00:45:53.250                             : en:00:45:53.2500 v- ^+ q; K0 T  z( F5 |6 T
  60. 00:48:17.061                             : en:00:48:17.0618 `  q) y' m1 ]! W3 ?( b, ^) c
  61. 00:56:24.339                             : en:00:56:24.339$ F1 I- j& [6 f7 B
  62. 01:03:47.490                             : en:01:03:47.490/ Q+ T' P9 V% Y) D) k% U; Q( h( O
  63. 01:09:16.486                             : en:01:09:16.486  A% M: G3 ~3 f3 s2 e
  64. 01:14:17.078                             : en:01:14:17.078
    % t6 g9 b  r9 s) P0 f2 L: ^
  65. 01:19:04.615                             : en:01:19:04.615' g- C* y7 ^9 y4 T9 }
  66. 01:24:10.587                             : en:01:24:10.587( _" q1 Z3 q/ @  H- F* i
  67. 01:31:51.923                             : en:01:31:51.923
    0 H4 |0 m8 v! i. B& i
  68. 01:36:00.588                             : en:01:36:00.588
    5 I5 R0 }* D' e
  69. 01:40:03.247                             : en:01:40:03.247# Y( H. p2 W/ E. Q3 S- t7 d6 h
  70. 01:46:51.947                             : en:01:46:51.947
复制代码

5 y7 P& ]) W* l- O; w9 i4 _ 昨日奇迹 Yesterday.2019.720p.BluRay.x264-DRONES 4.38GB-2.png
" t9 B% u! m- C2 H
0 C8 F' C. M3 }$ A& z3 V. @% z; E2 M" N9 ^& f! M7 I
9 N- m4 R' [4 X7 [: ?1 V' v- w

. d- U: @" V' g# O; n4 \
* S+ b2 _' n" e& m2 M
$ @+ t  q- {! e& f, a
VIP会员免费任意下载本站所有资源!---点击开通
回复

使用道具 举报

级别:荣升主角 Lv.5

注册时间
2019-2-3
最后登录
2020-1-17
听众
15
收听
0
主题
0
蓝光币
250 枚
贡献
0 点
发表于 2019-9-12 21:28:02 | 显示全部楼层
楼主发贴辛苦了,谢谢楼主分享!我觉得中国高清电影网是注册对了!
VIP会员免费任意下载本站所有资源!---点击开通
回复

使用道具 举报

级别:一线明星 Lv.8

注册时间
2019-4-24
最后登录
2020-1-17
听众
14
收听
0
主题
0
蓝光币
255 枚
贡献
0 点
发表于 2019-9-17 09:03:02 | 显示全部楼层
楼主发贴辛苦了,谢谢楼主分享!我觉得中国高清电影网是注册对了!
VIP会员免费任意下载本站所有资源!---点击开通
回复

使用道具 举报

懒得打字嘛,点击右侧快捷回复 【右侧内容,后台自定义】
您需要登录后才可以回帖 登录 | 立即注册

本版积分规则

Archiver|手机版|小黑屋| 中国高清网 |网站地图

GMT+8, 2020-1-18 05:15 , Processed in 0.198825 second(s), 37 queries .

Powered by HDchina X3.4

Copyright 2017-2019©HDchina.All right reserved

返回顶部 联系我们