查看: 26|回复: 2

[喜剧片] 昨日奇迹 Yesterday.2019.720p.BluRay.x264-DRONES 4.38GB

[复制链接]

 成长值: 2560

级别:资源管理组

注册时间
2017-10-20
最后登录
2019-9-19
听众
1
收听
0
主题
82921
蓝光币
49296 枚
贡献
7249 点
发表于 2019-9-12 19:16:11 | 显示全部楼层 |阅读模式
昨日奇迹 Yesterday.2019.720p.BluRay.x264-DRONES 4.38GB-1.png
* @3 H9 a/ |# p3 Q7 H4 r' C& R7 k; o& I3 C
译  名 昨日奇迹 / All You Need is Love / 你需要的只是爱 / 昨天 / 昨日 / 缘來自昨天(港) / 靠谱歌王(台)
- x) {6 g# R+ p: C# ^9 z片  名 Yesterday' Z$ I* l+ b1 a
年  代 2019
  w5 |3 N) O; E" t+ ~产  地 英国* S; H1 ?% @( H2 p; Q
类  别 笑剧 / 音乐 / 奇异
# ^. g0 W! ^* N( k# A6 ?语  言 英语
. i% [$ a3 \9 ^; O上映日期 2019-05-05(翠贝卡电影节) / 2019-06-28(英国) / 2019-08-16(中国大陆)
: `! S# o" P( |+ s! vIMDb评分  7.0/10 from 31211 users' t( C! t6 ^( g$ P6 T
IMDb链接  http://www.imdb.com/title/tt8079248
+ g( l+ Q' O0 `/ {  Q' T* J豆瓣评分 6.6/10 from 3863 users
# Y1 n% L* Y8 E3 y豆瓣链接 https://movie.douban.com/subject/30165034/
/ Y+ T8 u* I, E. G& S0 ^* L片  长 116分钟
6 |$ l8 q' K) G3 j  D0 m, U导  演 丹尼·博伊尔 Danny Boyle
: ^+ q6 Q* D+ t: x" S$ I# E编  剧 杰克·巴斯 Jack Barth / 理查德·柯蒂斯 Richard Curtis
7 Y. `+ m: I% c$ [主  演 希米什·帕特尔 Himesh Patel  Y- T( \# _! B2 c( D
       莉莉·詹姆斯 Lily James
# u4 R! h$ D! p9 K7 X( Z& G8 m       艾德·希兰 Ed Sheeran3 }! k# G- @/ T. N2 M1 C/ A  d# `
       凯特·麦克金农 Kate McKinnon
) |* w6 U2 @( `5 Y9 y4 ^, K6 m       阿历克斯·阿诺 Alexander Arnold; [/ X0 W2 ^6 ?$ F
       乔尔·弗莱 Joel Fry
3 h! p/ A+ N) F- }6 n4 ^       詹姆斯·柯登 James Corden
8 U9 R) [* k% T" d6 x       卡米利·陈 Camille Chen0 s& g" q5 A# ?4 \. D' }1 Z- l
       拉蒙尼·莫里斯 Lamorne Morris' a, m0 K% c# |1 w$ K6 A) `# _5 k) S
       索菲娅·迪·马蒂诺 Sophia Di Martino
, t: X5 A8 h+ H9 u6 C       卡米拉·拉瑟福德 Camilla Rutherford
- O9 u( p  \" W. j6 T6 F       艾利斯·查普尔 Ellise Chappell
7 a  n( M, Y* H       莎拉·兰卡夏尔 Sarah Lancashire
4 e- w! G6 s# A& v1 {+ C+ E- ~       多米尼克·科尔曼 Dominic Coleman
) Y- Y1 P( z' a6 m9 ]5 N. j       玛丽安娜·斯皮瓦克 Maryana Spivak
) G5 `1 s6 Y0 l9 @+ S3 M       詹妮弗·阿尔莫 Jennifer Armour
3 L5 W6 F. P( Q  C* D0 e       安娜·德·阿玛斯 Ana de Armas% H% h; y& l6 q$ B3 m8 A8 O0 ]
       哈廷·帕特尔 Hiten Patel& v" E; A) y" u+ t, n/ d
       阿图尔·夏尔马 Atul Sharma- V: i) h7 J6 o* {$ I
       马诺伊·阿南德 Manoj Anand
9 f8 y# l. j; R; z; f1 |' h' g       哈里·米歇尔 Harry Michell7 r. A6 G, u+ l5 `" D9 z  K
       珊妮·姚 Sunny Yeo
- }1 P0 Z5 B% _: A# i( x' ^       乔希·特雷特 Josh Trett
) n* {8 H5 F( t+ u& A/ }3 j       西蒙·P·爱德华兹 Simon P Edwards
. i: N& O, L" ]- N2 m6 j- }  e9 O8 d$ p( M2 D

0 c" `0 N4 T3 P% Y3 L  G; x' h$ [标  签 披头士 | 音乐 | 英国 | 笑剧 | 2019 | 摇滚 | 奇异 | 平行穿越) F/ [; H* W, w9 z

2 A% P% B$ W' Y) e6 N( F9 I. c简  介  ! N! z2 e  i, q- E. q( I
2 u- z; `8 @! ~4 C: L8 p  n; ?3 X& e
  杰克(希米什·帕特尔 饰)是英国一个海滨小镇上苦苦挣扎的创作型歌手,有着好友艾莉(莉莉·詹姆斯 饰)的一向支持。在一次奥秘的全球大停电中发生了一路希奇的公交车变乱,杰克醒来后发现披头士乐队底子从未存在过。他正面临着很是复杂的题目。
4 P% |3 ?* J7 J6 l# g( r3 }2 H% _. f
  1. Video
    3 K6 E# |8 Q6 a& k; d
  2. ID                                       : 1
    ' `; X( z; Y1 |8 m* J+ M* L3 g
  3. Format                                   : AVC2 y8 V# b( {3 [$ G5 D# n& l
  4. Format/Info                              : Advanced Video Codec' F  F- r$ @3 Z! u: q( H8 J- q
  5. Format profile                           : <a href="/cdn-cgi/l/email-protection" class="__cf_email__" data-cfemail="4e062729260e027a607f">[email protected]</a>
    . M: y( e, q2 e+ {5 q- M  H9 K
  6. Format settings                          : CABAC / 5 Ref Frames
    4 O* O( y3 B: N# X5 U
  7. Format settings, CABAC                   : Yes
    % v* S1 l8 O  B* }9 C/ Z9 k
  8. Format settings, Reference frames        : 5 frames
    & Q" R1 ^4 i" m4 @( d, T
  9. Codec ID                                 : V_MPEG4/ISO/AVC& M4 [5 g' N& x$ W! G
  10. Duration                                 : 1 h 56 min
    & s3 n/ b! G. X7 M
  11. Bit rate                                 : 4 742 kb/s3 {( [0 L' @+ n7 u
  12. Width                                    : 1 280 pixels
    , @# V, ]3 q  d7 p8 n! Z
  13. Height                                   : 536 pixels
    - @3 N  U" q7 g; d! o
  14. Display aspect ratio                     : 2.40:1
    % K3 K/ Y; J2 p. N4 r
  15. Frame rate mode                          : Constant
    7 {% i, T% z1 t- X& Q3 A! b" ^
  16. Frame rate                               : 23.976 FPS5 s, g2 u" f' `8 z. O8 }4 h
  17. Color space                              : YUV
    $ _6 R- @( |5 u. H+ d
  18. Chroma subsampling                       : 4:2:0
    1 \; k' ?) I  Z8 q
  19. Bit depth                                : 8 bits# c/ Q7 T) t- v$ d7 \
  20. Scan type                                : Progressive8 V+ k5 Y. n* X. Z5 _: G
  21. Bits/(Pixel*Frame)                       : 0.288
    5 o% \. U" p& V: F) y6 v* c
  22. Stream size                              : 3.85 GiB (88%)
    : Z& a/ y* d8 n- I7 N- c! p, R
  23. Writing library                          : x264 core 158 r2984 3759fcb! C5 y. F: H' @" V" Q6 ^. s$ G
  24. Encoding settings                        : cabac=1 / ref=5 / deblock=1:-3:-3 / analyse=0x3:0x113 / me=umh / subme=8 / psy=1 / psy_rd=1.00:0.00 / mixed_ref=1 / me_range=16 / chroma_me=1 / trellis=1 / 8x8dct=1 / cqm=0 / deadzone=21,11 / fast_pskip=1 / chroma_qp_offset=-2 / threads=17 / lookahead_threads=2 / sliced_threads=0 / nr=0 / decimate=1 / interlaced=0 / bluray_compat=0 / constrained_intra=0 / bframes=3 / b_pyramid=2 / b_adapt=1 / b_bias=0 / direct=3 / weightb=1 / open_gop=0 / weightp=2 / keyint=250 / keyint_min=23 / scenecut=40 / intra_refresh=0 / rc_lookahead=50 / rc=2pass / mbtree=1 / bitrate=4742 / ratetol=1.0 / qcomp=0.60 / qpmin=0 / qpmax=69 / qpstep=4 / cplxblur=20.0 / qblur=0.5 / ip_ratio=1.40 / aq=1:1.00- Y. W9 }* W. f3 y) f# M. d. U0 I3 u6 z
  25. Language                                 : English
    * f% I6 n9 F, O1 |
  26. Default                                  : Yes
    5 S; f# R; n% i- C, q5 \) x7 l
  27. Forced                                   : No
    5 r& w" u8 J* m$ ~, S" }% ^
  28. * Q/ A8 h6 D, N& |7 F! c2 h
  29. Audio
    # V) C3 `3 m$ t$ G1 |* X
  30. ID                                       : 2
    : Q7 V5 \! x, T* g: u
  31. Format                                   : AC-3- H6 \7 B/ e; }
  32. Format/Info                              : Audio Coding 3
    6 l0 O( y9 ^& F, e6 K/ A9 \& K
  33. Commercial name                          : Dolby Digital; E/ ^6 ?9 y6 I* b$ _  K: T
  34. Codec ID                                 : A_AC3
    " Y7 U  k+ [2 L; \
  35. Duration                                 : 1 h 56 min
    ! g: b$ u2 t% r4 a& s3 O* T
  36. Bit rate mode                            : Constant
    6 _: [. I  a0 J9 Y4 i% M
  37. Bit rate                                 : 640 kb/s
    / d* P1 O# B. |6 t& L* [9 E
  38. Channel(s)                               : 6 channels9 z2 T6 K! u/ S5 u
  39. Channel layout                           : L R C LFE Ls Rs% F3 K- r$ h# d3 b1 ^$ F& J3 ]
  40. Sampling rate                            : 48.0 kHz
    * ^2 @  a9 b& u% x; T3 G
  41. Frame rate                               : 31.250 FPS (1536 SPF)
    1 x. }/ Z& K' f* e5 i' W
  42. Bit depth                                : 16 bits& y% l$ \4 a7 X
  43. Compression mode                         : Lossy
    ; s2 a4 r) E# t" n; W. W9 M9 n1 h
  44. Stream size                              : 532 MiB (12%)0 {( x3 G0 B4 @$ R/ t5 E
  45. Language                                 : English
    8 |' j/ ]' x8 Z+ b: a7 Z8 x) \
  46. Service kind                             : Complete Main" @7 }& q, L& {  ^
  47. Default                                  : Yes
    ( m9 h+ M. R+ q( n% s, f
  48. Forced                                   : No- t& z9 Q/ j0 C5 q$ |- ?
  49. 0 S) z, ]& p( N" V% W$ i
  50. Menu4 u, c: B; v: o# c! K9 M4 g
  51. 00:00:00.000                             : en:00:00:00.0007 ?4 c+ [4 ^/ M, O
  52. 00:06:16.668                             : en:00:06:16.668
    ; M" F3 F7 b; }
  53. 00:11:19.679                             : en:00:11:19.679
    + P$ q) i7 y5 J9 W, n( I
  54. 00:16:13.097                             : en:00:16:13.0976 s1 X6 B+ b9 O- Z! U; K% ]
  55. 00:21:28.287                             : en:00:21:28.287
    # F# G) W* v3 k1 N8 {" [* N
  56. 00:27:04.540                             : en:00:27:04.540$ B$ m- C  j! U9 n2 d7 H& U: R
  57. 00:33:31.885                             : en:00:33:31.8856 F7 R: t; P, f# |! d& m7 Y. F
  58. 00:38:55.083                             : en:00:38:55.083  E6 S4 a  D! S. S3 k7 i. \
  59. 00:45:53.250                             : en:00:45:53.2500 Z5 x4 K( c3 c
  60. 00:48:17.061                             : en:00:48:17.0618 d5 s  E* P# T& C* J9 v' {$ ^% t0 Y* a
  61. 00:56:24.339                             : en:00:56:24.3395 x5 J( e4 R( ^
  62. 01:03:47.490                             : en:01:03:47.490
    6 z; F1 k6 }1 ~6 q6 W# N
  63. 01:09:16.486                             : en:01:09:16.486
    - ]; X. R  S" H
  64. 01:14:17.078                             : en:01:14:17.078+ p6 B/ z1 ]5 M
  65. 01:19:04.615                             : en:01:19:04.615
    ' G( @* ?- N& d# I  d* T
  66. 01:24:10.587                             : en:01:24:10.587- V- v' l; }8 f. i6 o0 K
  67. 01:31:51.923                             : en:01:31:51.923# M1 W9 q) F* u3 }( _# T( a) ~
  68. 01:36:00.588                             : en:01:36:00.588# ]: e0 c. E5 t* X6 p# J, K
  69. 01:40:03.247                             : en:01:40:03.247
      v+ x3 Y8 z* C) _6 V3 M
  70. 01:46:51.947                             : en:01:46:51.947
复制代码
$ s2 k$ d% p% G5 D3 s$ e! s- ?$ \1 _: F
昨日奇迹 Yesterday.2019.720p.BluRay.x264-DRONES 4.38GB-2.png
$ D; f* b, V, m/ J% J0 i: l1 c2 q" I+ k1 ^' ^
. E: x, A. s4 H$ c

5 v) e& S  s: q' V& x$ P" y9 _8 g, r& T& p

  ?, X  ~' ?8 C. G! C
+ ]9 ~  w& a/ E% i4 e# ?. C6 `
VIP会员免费任意下载本站所有资源!---点击开通
回复

使用道具 举报

级别:荣升主角 Lv.5

注册时间
2019-2-3
最后登录
2019-9-19
听众
14
收听
0
主题
0
蓝光币
172 枚
贡献
0 点
发表于 2019-9-12 21:28:02 | 显示全部楼层
楼主发贴辛苦了,谢谢楼主分享!我觉得中国高清电影网是注册对了!
VIP会员免费任意下载本站所有资源!---点击开通
回复

使用道具 举报

级别:领衔主演 Lv.6

注册时间
2019-4-24
最后登录
2019-9-19
听众
13
收听
0
主题
0
蓝光币
107 枚
贡献
0 点
发表于 3 天前 | 显示全部楼层
楼主发贴辛苦了,谢谢楼主分享!我觉得中国高清电影网是注册对了!
VIP会员免费任意下载本站所有资源!---点击开通
回复

使用道具 举报

懒得打字嘛,点击右侧快捷回复 【右侧内容,后台自定义】
您需要登录后才可以回帖 登录 | 立即注册

本版积分规则

QQ|Archiver|手机版|小黑屋| 中国高清网 |网站地图

GMT+8, 2019-9-20 04:48 , Processed in 0.428126 second(s), 39 queries .

Powered by HDchina X3.4

Copyright 2017-2019©HDchina.All right reserved

返回顶部 联系我们