查看: 18|回复: 0

[喜剧片] 飞越童真 Look.Whos.Talking.1989.1080p.WEBRip.x264-RARBG 1.83GB

[复制链接]

 成长值: 2570

级别:资源管理组

注册时间
2017-10-20
最后登录
2019-9-21
听众
1
收听
0
主题
83026
蓝光币
49779 枚
贡献
7354 点
发表于 2019-9-12 19:05:56 | 显示全部楼层 |阅读模式
飞越童真 Look.Whos.Talking.1989.1080p.WEBRip.x264-RARBG 1.83GB-1.png

译  名 飞越童真 / Daddy's Home / 看谁在措辞
片  名 Look Who's Talking
年  代 1989
产  地 美国
类  别 笑剧 / 恋爱
语  言 英语
上映日期 1989-10-13
IMDb评分  5.9/10 from 73257 users
IMDb链接  http://www.imdb.com/title/tt0097778
豆瓣评分 6.9/10 from 378 users
豆瓣链接 https://movie.douban.com/subject/1300417/
片  长 93 分钟
导  演 Amy Heckerling
编  剧 Amy Heckerling
主  演 John Travolta
       Kirstie Alley
       Olympia Dukakis
       George Segal


标  签 笑剧 | 美国 | 儿童 | 美国电影 | 搞笑 | 1989 | JohnTravolta | 恋爱

简  介  

  莫莉(柯尔斯蒂·艾利 Kirstie Alley 饰)是一位普通的设想师,在一次工作中,她结识了名为艾尔伯特(乔治·席格 George Segal 饰)的男人。虽然艾尔伯特已经有了家室,但莫莉还是无可救药的爱上了他。两人超越了道德的界限走到了一路。未几以后,莫莉的腹中怀上了艾尔伯特的孩子,莫莉筹算将孩子生下来,她深信艾尔伯特不会优待他们母子两人。
  但是适得其反,艾尔伯特居然无情的抛弃了这一对孤儿寡母。穷途末路的莫莉决议一定要给自己的孩子寻觅一个靠谱的父亲,如此想着她相逢了名为詹姆斯(约翰·特拉沃尔塔 John Travolta 饰)的出租车司机。就在莫莉和詹姆斯之间的间隔越来越近之际,艾尔伯特回到了莫莉的身旁。
  1. Video
  2. ID                                       : 1
  3. Format                                   : AVC
  4. Format/Info                              : Advanced Video Codec
  5. Format profile                           : <a href="/cdn-cgi/l/email-protection" class="__cf_email__" data-cfemail="e7af8e808fa7abd3c9d6">[email protected]</a>
  6. Format settings                          : CABAC / 4 Ref Frames
  7. Format settings, CABAC                   : Yes
  8. Format settings, Reference frames        : 4 frames
  9. Codec ID                                 : avc1
  10. Codec ID/Info                            : Advanced Video Coding
  11. Duration                                 : 1 h 35 min
  12. Bit rate                                 : 2 500 kb/s
  13. Width                                    : 1 920 pixels
  14. Height                                   : 1 080 pixels
  15. Display aspect ratio                     : 16:9
  16. Frame rate mode                          : Constant
  17. Frame rate                               : 23.976 (23976/1000) FPS
  18. Color space                              : YUV
  19. Chroma subsampling                       : 4:2:0
  20. Bit depth                                : 8 bits
  21. Scan type                                : Progressive
  22. Bits/(Pixel*Frame)                       : 0.050
  23. Stream size                              : 1.67 GiB (92%)
  24. Writing library                          : x264 core 152 r2851M ba24899
  25. Encoding settings                        : cabac=1 / ref=4 / deblock=1:-1:-1 / analyse=0x3:0x113 / me=umh / subme=9 / psy=1 / psy_rd=1.00:0.15 / mixed_ref=1 / me_range=24 / chroma_me=1 / trellis=2 / 8x8dct=1 / cqm=0 / deadzone=21,11 / fast_pskip=1 / chroma_qp_offset=-3 / threads=16 / lookahead_threads=4 / sliced_threads=0 / nr=0 / decimate=1 / interlaced=0 / bluray_compat=0 / constrained_intra=0 / bframes=3 / b_pyramid=2 / b_adapt=2 / b_bias=0 / direct=3 / weightb=1 / open_gop=0 / weightp=2 / keyint=250 / keyint_min=25 / scenecut=40 / intra_refresh=0 / rc_lookahead=50 / rc=2pass / mbtree=1 / bitrate=2500 / ratetol=1.0 / qcomp=0.60 / qpmin=0 / qpmax=69 / qpstep=4 / cplxblur=20.0 / qblur=0.5 / vbv_maxrate=31250 / vbv_bufsize=31250 / nal_hrd=none / filler=0 / ip_ratio=1.40 / aq=3:1.00
  26. Encoded date                             : UTC 2019-09-11 23:17:30
  27. Tagged date                              : UTC 2019-09-11 23:17:30
  28. Codec configuration box                  : avcC

  29. Audio
  30. ID                                       : 2
  31. Format                                   : AAC LC
  32. Format/Info                              : Advanced Audio Codec Low Complexity
  33. Codec ID                                 : mp4a-40-2
  34. Duration                                 : 1 h 35 min
  35. Duration_LastFrame                       : -11 ms
  36. Bit rate mode                            : Constant
  37. Bit rate                                 : 224 kb/s
  38. Channel(s)                               : 6 channels
  39. Channel layout                           : C L R Ls Rs LFE
  40. Sampling rate                            : 48.0 kHz
  41. Frame rate                               : 46.875 FPS (1024 SPF)
  42. Compression mode                         : Lossy
  43. Stream size                              : 154 MiB (8%)
  44. Language                                 : English
  45. Default                                  : Yes
  46. Alternate group                          : 1
  47. Encoded date                             : UTC 2019-09-11 23:17:30
  48. Tagged date                              : UTC 2019-09-11 23:17:30
复制代码

飞越童真 Look.Whos.Talking.1989.1080p.WEBRip.x264-RARBG 1.83GB-2.png 飞越童真 Look.Whos.Talking.1989.1080p.WEBRip.x264-RARBG 1.83GB-3.png 飞越童真 Look.Whos.Talking.1989.1080p.WEBRip.x264-RARBG 1.83GB-4.png






VIP会员免费任意下载本站所有资源!---点击开通
回复

使用道具 举报

懒得打字嘛,点击右侧快捷回复 【右侧内容,后台自定义】
您需要登录后才可以回帖 登录 | 立即注册

本版积分规则

QQ|Archiver|手机版|小黑屋| 中国高清网 |网站地图

GMT+8, 2019-9-21 21:44 , Processed in 11.564608 second(s), 39 queries .

Powered by HDchina X3.4

Copyright 2017-2019©HDchina.All right reserved

返回顶部 联系我们