查看: 16|回复: 0

[REMUX.HEVC] 恐龙当家/善良的恐龙 The.Good.Dinosaur.2015.2160p.BluRay.REMUX.HEVC.DTS-HD.MA.TrueHD.7.1.Atmos-FGT 46.92GB

[复制链接]

 成长值: 2570

级别:资源管理组

注册时间
2017-10-20
最后登录
2019-9-21
听众
1
收听
0
主题
83009
蓝光币
49621 枚
贡献
7337 点
发表于 2019-9-11 14:40:20 | 显示全部楼层 |阅读模式
恐龙当家/善良的恐龙 The.Good.Dinosaur.2015.2160p.BluRay.REMUX.HEVC.DTS-HD.MA.TrueHD.7.1.Atmos-FGT 46.92GB-1.png

译  名 恐龙当家 / 善良的恐龙 / 恐龙大时代(港) / 恐龙管家 / 美好的恐龙天下
片  名 The Good Dinosaur
年  代 2015
产  地 美国
类  别 笑剧 / 动画 / 家庭 / 冒险
语  言 英语
上映日期 2015-11-25(美国)
IMDb评分  6.7/10 from 92908 users
IMDb链接  http://www.imdb.com/title/tt1979388
豆瓣评分 7.3/10 from 36588 users
豆瓣链接 https://movie.douban.com/subject/6875863/
片  长 93分钟
导  演 彼得·孙 Peter Sohn
编  剧 鲍勃·彼德森 Bob Peterson / 彼得·孙 Peter Sohn / 埃里克·本森 Erik Benson / 梅格·勒福夫 Meg LeFauve / 凯尔西·曼 Kelsey Mann / 彼得·赫奇斯 Peter Hedges / 阿德里安·莫利纳 Adrian Molina
主  演 雷蒙德·奥乔亚 Raymond Ochoa
       杰克·布赖特 Jack Bright
       杰弗里·怀特 Jeffrey Wright
       史蒂夫·茨恩 Steve Zahn
       A·J·巴克利 A.J. Buckley
       安娜·帕奎因 Anna Paquin
       山姆·艾里奥特 Sam Elliott
       弗兰西斯·麦克多蒙德 Frances McDormand
       马库斯·斯克里布纳 Marcus Scribner
       彼得·索恩 Peter Sohn


标  签 动画 | 美国 | 皮克斯 | 长大 | 迪士尼 | 冒险 | Pixar | 2015

简  介  

  6500万年前,一颗小行星与地球擦肩而过,称霸这个天下的恐龙懵懵懂懂地逃过了没顶之灾。以后又过了数百万年,恐龙的智力获得进化,它们学会种植、畜牧、修建,而且具有属于自己的说话和家庭。某座山脚下的平原地带,雷龙一家迎来三本性情各异的娃娃,最小的阿洛(雷蒙德·奥乔亚 Ray mond Ochoa 配音)羸弱胆寒,与父亲的生离死别更在他的心中投下难以磨灭的阴影。连续串的事务事后,他与妈妈、哥哥、姐姐相隔万里。阿洛将这一切都归罪于原始人类的小孩点点(杰克·布赖特 Jack Bright 配音)。而点点似乎不为所动,他自动亲近阿洛,恍如是一条虔诚勇敢的小狗。
  在布满坎坷和危险的回家之路上,阿洛与点点结伴而行,而这两个本不应碰面的恐龙和人类,将缔结超越了种族和时空的纯真友谊……

获奖情况  

  第73届金球奖(2016)
  电影类 最好动画长片(提名)

  第43届动画安妮奖(2016)
  最好动画长片(提名)
  最好配乐(提名)
  最好分镜(提名)
  最好艺术指导(提名)
  最好动画脚色(提名)
  最好脚色设想(提名)
  最好动画结果

  第27届美国制片野生会奖(2016)
  最好动画片制片人奖(提名)

  第66届美国剪辑工会奖(2016)
  动画片最好剪辑(提名)

  第14届美国视觉结果协会奖(2016)
  最好动画电影视觉结果
  最好动画电影CG动画脚色(提名)
  最好动画电影CG布景
  最好动画电影模拟动画结果

  第21届美国批评家挑选电影奖(2016)
  最好动画片(提名)

  第19届美国在线影评人协会奖(2015)
  最好动画片(提名)

  第2届豆瓣电影年度榜单(2015)
  评分最高的动画片(提名)
  1. Video
  2. ID                                       : 1
  3. Format                                   : HEVC
  4. Format/Info                              : High Efficiency Video Coding
  5. Format profile                           : Main <a href="/cdn-cgi/l/email-protection" class="__cf_email__" data-cfemail="c3f2f3838ff6edf2">[email protected]</a>@High
  6. HDR format                               : SMPTE ST 2086, HDR10 compatible
  7. Codec ID                                 : V_MPEGH/ISO/HEVC
  8. Duration                                 : 1 h 33 min
  9. Bit rate                                 : 55.5 Mb/s
  10. Width                                    : 3 840 pixels
  11. Height                                   : 2 160 pixels
  12. Display aspect ratio                     : 16:9
  13. Frame rate mode                          : Constant
  14. Frame rate                               : 23.976 (24000/1001) FPS
  15. Color space                              : YUV
  16. Chroma subsampling                       : 4:2:0 (Type 2)
  17. Bit depth                                : 10 bits
  18. Bits/(Pixel*Frame)                       : 0.279
  19. Stream size                              : 36.3 GiB (77%)
  20. Title                                    : The.Good.Dinosaur.2015.2160p.BluRay.REMUX.HEVC.DTS-HD.MA.TrueHD.7.1.Atmos-FGT
  21. Writing library                          : ATEME Titan File 3.9.0 (4.9.0.0)        
  22. Language                                 : English
  23. Default                                  : No
  24. Forced                                   : No
  25. Color range                              : Limited
  26. Color primaries                          : BT.2020
  27. Transfer characteristics                 : PQ
  28. Matrix coefficients                      : BT.2020 non-constant
  29. Mastering display color primaries        : Display P3
  30. Mastering display luminance              : min: 0.0000 cd/m2, max: 1000 cd/m2

  31. Audio #1
  32. ID                                       : 2
  33. Format                                   : MLP FBA 16-ch
  34. Format/Info                              : Meridian Lossless Packing FBA with 16-channel presentation
  35. Commercial name                          : Dolby TrueHD with Dolby Atmos
  36. Codec ID                                 : A_TRUEHD
  37. Duration                                 : 1 h 33 min
  38. Bit rate mode                            : Variable
  39. Bit rate                                 : 6 345 kb/s
  40. Maximum bit rate                         : 8 292 kb/s
  41. Channel(s)                               : 8 channels
  42. Channel layout                           : L R C LFE Ls Rs Lb Rb
  43. Sampling rate                            : 48.0 kHz
  44. Frame rate                               : 1 200.000 FPS (40 SPF)
  45. Compression mode                         : Lossless
  46. Stream size                              : 4.15 GiB (9%)
  47. Title                                    : The.Good.Dinosaur.2015.2160p.BluRay.REMUX.HEVC.DTS-HD.MA.TrueHD.7.1.Atmos-FGT
  48. Language                                 : English
  49. Default                                  : Yes
  50. Forced                                   : No
  51. Number of dynamic objects                : 13
  52. Bed channel count                        : 1 channel
  53. Bed channel configuration                : LFE

  54. Audio #2
  55. ID                                       : 3
  56. Format                                   : DTS XLL
  57. Format/Info                              : Digital Theater Systems
  58. Commercial name                          : DTS-HD Master Audio
  59. Codec ID                                 : A_DTS
  60. Duration                                 : 1 h 33 min
  61. Bit rate mode                            : Variable
  62. Bit rate                                 : 3 642 kb/s
  63. Channel(s)                               : 8 channels
  64. Channel layout                           : C L R LFE Lb Rb Lss Rss
  65. Sampling rate                            : 48.0 kHz
  66. Frame rate                               : 93.750 FPS (512 SPF)
  67. Bit depth                                : 24 bits
  68. Compression mode                         : Lossless
  69. Stream size                              : 2.38 GiB (5%)
  70. Title                                    : The.Good.Dinosaur.2015.2160p.BluRay.REMUX.HEVC.DTS-HD.MA.TrueHD.7.1.Atmos-FGT
  71. Language                                 : English
  72. Default                                  : No
  73. Forced                                   : No

  74. Audio #3
  75. ID                                       : 4
  76. Format                                   : AC-3
  77. Format/Info                              : Audio Coding 3
  78. Commercial name                          : Dolby Digital
  79. Codec ID                                 : A_AC3
  80. Duration                                 : 1 h 33 min
  81. Bit rate mode                            : Constant
  82. Bit rate                                 : 640 kb/s
  83. Channel(s)                               : 6 channels
  84. Channel layout                           : L R C LFE Ls Rs
  85. Sampling rate                            : 48.0 kHz
  86. Frame rate                               : 31.250 FPS (1536 SPF)
  87. Bit depth                                : 16 bits
  88. Compression mode                         : Lossy
  89. Stream size                              : 429 MiB (1%)
  90. Title                                    : The.Good.Dinosaur.2015.2160p.BluRay.REMUX.HEVC.DTS-HD.MA.TrueHD.7.1.Atmos-FGT
  91. Language                                 : English
  92. Service kind                             : Complete Main
  93. Default                                  : No
  94. Forced                                   : No

  95. Audio #4
  96. ID                                       : 5
  97. Format                                   : E-AC-3
  98. Format/Info                              : Enhanced AC-3
  99. Commercial name                          : Dolby Digital Plus
  100. Format profile                           : Blu-ray Disc
  101. Codec ID                                 : A_EAC3
  102. Duration                                 : 1 h 33 min
  103. Bit rate mode                            : Constant
  104. Bit rate                                 : 896 kb/s
  105. Channel(s)                               : 8 channels
  106. Channel layout                           : L R C LFE Ls Rs Lb Rb
  107. Sampling rate                            : 48.0 kHz
  108. Frame rate                               : 31.250 FPS (1536 SPF)
  109. Compression mode                         : Lossy
  110. Stream size                              : 600 MiB (1%)
  111. Title                                    : The.Good.Dinosaur.2015.2160p.BluRay.REMUX.HEVC.DTS-HD.MA.TrueHD.7.1.Atmos-FGT
  112. Language                                 : English
  113. Service kind                             : Complete Main
  114. Default                                  : No
  115. Forced                                   : No

  116. Audio #5
  117. ID                                       : 6
  118. Format                                   : AC-3
  119. Format/Info                              : Audio Coding 3
  120. Commercial name                          : Dolby Digital
  121. Codec ID                                 : A_AC3
  122. Duration                                 : 1 h 33 min
  123. Bit rate mode                            : Constant
  124. Bit rate                                 : 512 kb/s
  125. Channel(s)                               : 6 channels
  126. Channel layout                           : L R C LFE Ls Rs
  127. Sampling rate                            : 48.0 kHz
  128. Frame rate                               : 31.250 FPS (1536 SPF)
  129. Bit depth                                : 16 bits
  130. Compression mode                         : Lossy
  131. Stream size                              : 343 MiB (1%)
  132. Title                                    : The.Good.Dinosaur.2015.2160p.BluRay.REMUX.HEVC.DTS-HD.MA.TrueHD.7.1.Atmos-FGT
  133. Language                                 : English
  134. Service kind                             : Complete Main
  135. Default                                  : No
  136. Forced                                   : No

  137. Audio #6
  138. ID                                       : 7
  139. Format                                   : AC-3
  140. Format/Info                              : Audio Coding 3
  141. Commercial name                          : Dolby Digital
  142. Codec ID                                 : A_AC3
  143. Duration                                 : 1 h 33 min
  144. Bit rate mode                            : Constant
  145. Bit rate                                 : 640 kb/s
  146. Channel(s)                               : 6 channels
  147. Channel layout                           : L R C LFE Ls Rs
  148. Sampling rate                            : 48.0 kHz
  149. Frame rate                               : 31.250 FPS (1536 SPF)
  150. Bit depth                                : 16 bits
  151. Compression mode                         : Lossy
  152. Stream size                              : 429 MiB (1%)
  153. Title                                    : The.Good.Dinosaur.2015.2160p.BluRay.REMUX.HEVC.DTS-HD.MA.TrueHD.7.1.Atmos-FGT
  154. Language                                 : English
  155. Service kind                             : Complete Main
  156. Default                                  : No
  157. Forced                                   : No

  158. Audio #7
  159. ID                                       : 8
  160. Format                                   : AC-3
  161. Format/Info                              : Audio Coding 3
  162. Commercial name                          : Dolby Digital
  163. Codec ID                                 : A_AC3
  164. Duration                                 : 1 h 33 min
  165. Bit rate mode                            : Constant
  166. Bit rate                                 : 320 kb/s
  167. Channel(s)                               : 2 channels
  168. Channel layout                           : L R
  169. Sampling rate                            : 48.0 kHz
  170. Frame rate                               : 31.250 FPS (1536 SPF)
  171. Bit depth                                : 16 bits
  172. Compression mode                         : Lossy
  173. Stream size                              : 214 MiB (0%)
  174. Title                                    : The.Good.Dinosaur.2015.2160p.BluRay.REMUX.HEVC.DTS-HD.MA.TrueHD.7.1.Atmos-FGT
  175. Language                                 : English
  176. Service kind                             : Complete Main
  177. Default                                  : No
  178. Forced                                   : No

  179. Audio #8
  180. ID                                       : 9
  181. Format                                   : AC-3
  182. Format/Info                              : Audio Coding 3
  183. Commercial name                          : Dolby Digital
  184. Codec ID                                 : A_AC3
  185. Duration                                 : 1 h 33 min
  186. Bit rate mode                            : Constant
  187. Bit rate                                 : 320 kb/s
  188. Channel(s)                               : 2 channels
  189. Channel layout                           : L R
  190. Sampling rate                            : 48.0 kHz
  191. Frame rate                               : 31.250 FPS (1536 SPF)
  192. Bit depth                                : 16 bits
  193. Compression mode                         : Lossy
  194. Stream size                              : 214 MiB (0%)
  195. Title                                    : The.Good.Dinosaur.2015.2160p.BluRay.REMUX.HEVC.DTS-HD.MA.TrueHD.7.1.Atmos-FGT
  196. Language                                 : English
  197. Service kind                             : Complete Main
  198. Default                                  : No
  199. Forced                                   : No

  200. Audio #9
  201. ID                                       : 10
  202. Format                                   : E-AC-3
  203. Format/Info                              : Enhanced AC-3
  204. Commercial name                          : Dolby Digital Plus
  205. Format profile                           : Blu-ray Disc
  206. Codec ID                                 : A_EAC3
  207. Duration                                 : 1 h 33 min
  208. Bit rate mode                            : Constant
  209. Bit rate                                 : 896 kb/s
  210. Channel(s)                               : 8 channels
  211. Channel layout                           : L R C LFE Ls Rs Lb Rb
  212. Sampling rate                            : 48.0 kHz
  213. Frame rate                               : 31.250 FPS (1536 SPF)
  214. Compression mode                         : Lossy
  215. Stream size                              : 600 MiB (1%)
  216. Title                                    : The.Good.Dinosaur.2015.2160p.BluRay.REMUX.HEVC.DTS-HD.MA.TrueHD.7.1.Atmos-FGT
  217. Language                                 : French
  218. Service kind                             : Complete Main
  219. Default                                  : No
  220. Forced                                   : No

  221. Audio #10
  222. ID                                       : 11
  223. Format                                   : AC-3
  224. Format/Info                              : Audio Coding 3
  225. Commercial name                          : Dolby Digital
  226. Codec ID                                 : A_AC3
  227. Duration                                 : 1 h 33 min
  228. Bit rate mode                            : Constant
  229. Bit rate                                 : 512 kb/s
  230. Channel(s)                               : 6 channels
  231. Channel layout                           : L R C LFE Ls Rs
  232. Sampling rate                            : 48.0 kHz
  233. Frame rate                               : 31.250 FPS (1536 SPF)
  234. Bit depth                                : 16 bits
  235. Compression mode                         : Lossy
  236. Stream size                              : 343 MiB (1%)
  237. Title                                    : The.Good.Dinosaur.2015.2160p.BluRay.REMUX.HEVC.DTS-HD.MA.TrueHD.7.1.Atmos-FGT
  238. Language                                 : French
  239. Service kind                             : Complete Main
  240. Default                                  : No
  241. Forced                                   : No

  242. Audio #11
  243. ID                                       : 12
  244. Format                                   : E-AC-3
  245. Format/Info                              : Enhanced AC-3
  246. Commercial name                          : Dolby Digital Plus
  247. Format profile                           : Blu-ray Disc
  248. Codec ID                                 : A_EAC3
  249. Duration                                 : 1 h 33 min
  250. Bit rate mode                            : Constant
  251. Bit rate                                 : 896 kb/s
  252. Channel(s)                               : 8 channels
  253. Channel layout                           : L R C LFE Ls Rs Lb Rb
  254. Sampling rate                            : 48.0 kHz
  255. Frame rate                               : 31.250 FPS (1536 SPF)
  256. Compression mode                         : Lossy
  257. Stream size                              : 600 MiB (1%)
  258. Title                                    : The.Good.Dinosaur.2015.2160p.BluRay.REMUX.HEVC.DTS-HD.MA.TrueHD.7.1.Atmos-FGT
  259. Language                                 : Spanish
  260. Service kind                             : Complete Main
  261. Default                                  : No
  262. Forced                                   : No

  263. Audio #12
  264. ID                                       : 13
  265. Format                                   : AC-3
  266. Format/Info                              : Audio Coding 3
  267. Commercial name                          : Dolby Digital
  268. Codec ID                                 : A_AC3
  269. Duration                                 : 1 h 33 min
  270. Bit rate mode                            : Constant
  271. Bit rate                                 : 512 kb/s
  272. Channel(s)                               : 6 channels
  273. Channel layout                           : L R C LFE Ls Rs
  274. Sampling rate                            : 48.0 kHz
  275. Frame rate                               : 31.250 FPS (1536 SPF)
  276. Bit depth                                : 16 bits
  277. Compression mode                         : Lossy
  278. Stream size                              : 343 MiB (1%)
  279. Title                                    : The.Good.Dinosaur.2015.2160p.BluRay.REMUX.HEVC.DTS-HD.MA.TrueHD.7.1.Atmos-FGT
  280. Language                                 : Spanish
  281. Service kind                             : Complete Main
  282. Default                                  : No
  283. Forced                                   : No

  284. Text #1
  285. ID                                       : 14
  286. Format                                   : UTF-8
  287. Codec ID                                 : S_TEXT/UTF8
  288. Codec ID/Info                            : UTF-8 Plain Text
  289. Duration                                 : 1 h 21 min
  290. Bit rate                                 : 24 b/s
  291. Count of elements                        : 530
  292. Stream size                              : 14.4 KiB (0%)
  293. Title                                    : English-SRT
  294. Language                                 : English
  295. Default                                  : Yes
  296. Forced                                   : No

  297. Text #2
  298. ID                                       : 15
  299. Format                                   : PGS
  300. Muxing mode                              : zlib
  301. Codec ID                                 : S_HDMV/PGS
  302. Codec ID/Info                            : Picture based subtitle format used on BDs/HD-DVDs
  303. Duration                                 : 1 h 23 min
  304. Bit rate                                 : 22.9 kb/s
  305. Count of elements                        : 1770
  306. Stream size                              : 13.7 MiB (0%)
  307. Title                                    : English-PGS
  308. Language                                 : English
  309. Default                                  : No
  310. Forced                                   : No

  311. Text #3
  312. ID                                       : 16
  313. Format                                   : PGS
  314. Muxing mode                              : zlib
  315. Codec ID                                 : S_HDMV/PGS
  316. Codec ID/Info                            : Picture based subtitle format used on BDs/HD-DVDs
  317. Duration                                 : 1 h 24 min
  318. Bit rate                                 : 14.8 kb/s
  319. Count of elements                        : 960
  320. Stream size                              : 8.90 MiB (0%)
  321. Title                                    : French-PGS
  322. Language                                 : French
  323. Default                                  : No
  324. Forced                                   : No

  325. Text #4
  326. ID                                       : 17
  327. Format                                   : PGS
  328. Muxing mode                              : zlib
  329. Codec ID                                 : S_HDMV/PGS
  330. Codec ID/Info                            : Picture based subtitle format used on BDs/HD-DVDs
  331. Duration                                 : 1 h 24 min
  332. Bit rate                                 : 14.3 kb/s
  333. Count of elements                        : 954
  334. Stream size                              : 8.57 MiB (0%)
  335. Title                                    : Spanish-PGS
  336. Language                                 : Spanish
  337. Default                                  : No
  338. Forced                                   : No

  339. Menu
  340. 00:00:00.000                             : en:Chapter 01
  341. 00:03:37.926                             : en:Chapter 02
  342. 00:06:16.459                             : en:Chapter 03
  343. 00:08:14.160                             : en:Chapter 04
  344. 00:12:12.606                             : en:Chapter 05
  345. 00:14:33.914                             : en:Chapter 06
  346. 00:17:42.102                             : en:Chapter 07
  347. 00:21:10.644                             : en:Chapter 08
  348. 00:22:58.168                             : en:Chapter 09
  349. 00:26:41.057                             : en:Chapter 10
  350. 00:29:02.615                             : en:Chapter 11
  351. 00:33:10.071                             : en:Chapter 12
  352. 00:35:28.668                             : en:Chapter 13
  353. 00:38:14.417                             : en:Chapter 14
  354. 00:41:08.841                             : en:Chapter 15
  355. 00:45:42.948                             : en:Chapter 16
  356. 00:47:47.948                             : en:Chapter 17
  357. 00:51:48.271                             : en:Chapter 18
  358. 00:55:46.968                             : en:Chapter 19
  359. 01:00:22.952                             : en:Chapter 20
  360. 01:03:59.001                             : en:Chapter 21
  361. 01:05:27.214                             : en:Chapter 22
  362. 01:07:11.777                             : en:Chapter 23
  363. 01:11:06.428                             : en:Chapter 24
  364. 01:13:43.377                             : en:Chapter 25
  365. 01:16:01.306                             : en:Chapter 26
  366. 01:19:08.118                             : en:Chapter 27
  367. 01:23:56.698                             : en:Chapter 28
  368. 01:26:00.780                             : en:Chapter 29
复制代码

恐龙当家/善良的恐龙 The.Good.Dinosaur.2015.2160p.BluRay.REMUX.HEVC.DTS-HD.MA.TrueHD.7.1.Atmos-FGT 46.92GB-2.png 恐龙当家/善良的恐龙 The.Good.Dinosaur.2015.2160p.BluRay.REMUX.HEVC.DTS-HD.MA.TrueHD.7.1.Atmos-FGT 46.92GB-3.png 恐龙当家/善良的恐龙 The.Good.Dinosaur.2015.2160p.BluRay.REMUX.HEVC.DTS-HD.MA.TrueHD.7.1.Atmos-FGT 46.92GB-4.png






本帖隐藏的下载地址需要VIP会员才可阅读,您需要升级才可阅读,点击这里升级VIP

VIP会员免费任意下载本站所有资源!---点击开通
回复

使用道具 举报

懒得打字嘛,点击右侧快捷回复 【右侧内容,后台自定义】
您需要登录后才可以回帖 登录 | 立即注册

本版积分规则

QQ|Archiver|手机版|小黑屋| 中国高清网 |网站地图

GMT+8, 2019-9-21 14:40 , Processed in 0.461741 second(s), 39 queries .

Powered by HDchina X3.4

Copyright 2017-2019©HDchina.All right reserved

返回顶部 联系我们