查看: 142|回复: 3

[纪录片] 奇异恩典/Aretha Franklin: 騷靈恩典(港) Amazing.Grace.2018.LiMiTED.720p.BluRay.x264-CADAVER 4.38GB

[复制链接]

 成长值: 4120

级别:资源管理组

注册时间
2017-10-20
最后登录
2020-2-18
听众
1
收听
0
主题
92435
蓝光币
99612 枚
贡献
16797 点
发表于 2019-9-7 11:04:56 | 显示全部楼层 |阅读模式
奇异膏泽/Aretha Franklin: 騷靈膏泽(港) Amazing.Grace.2018.LiMiTED.720p.BluRay.x264-CADAVER 4.38GB-1.png
1 p1 V# T- Q" b: ]6 Z; O  c9 B+ ~( U; x# Y& y3 u" c" L
译  名 奇异膏泽 / Aretha Franklin: 騷靈膏泽(港)7 z; C# d) b; p" Q! R/ p
片  名 Amazing Grace! h7 R: b4 S* C( ]
年  代 2018
, d1 a* E- f8 o( K产  地 美国
( Z! c" V1 Q2 m# t/ o类  别 记载片
3 P- r* Z9 a6 P$ _! }9 f4 J语  言 英语9 F1 x, k1 z4 K9 g3 f% V3 q* `
上映日期 2018-11-12(纽约记载片展)
$ g- r+ W8 @/ W+ z' x. |IMDb评分  7.7/10 from 1287 users
/ u% P: ^. e8 }8 R+ q- ^# DIMDb链接  http://www.imdb.com/title/tt4935462# M0 H- Y! I, `0 k, E" v
豆瓣评分 7.5/10 from 304 users
! V& V, n/ {& e& C) T豆瓣链接 https://movie.douban.com/subject/26591616/4 R" ^. f# h9 z4 W
片  长 89分钟  h* \4 k) n' ^3 K$ j2 |
导  演 西德尼·波拉克 Sydney Pollack
0 g  Q1 a9 Q: T* W# \主  演 艾瑞莎·弗兰克林 Aretha Franklin4 V# x# }' C1 p: Z
       米克·贾格尔 Mick Jagger/ T4 E) e, I7 l; v0 j
       西德尼·波拉克 Sydney Pollack
  g" b3 p1 M% d8 }' c' P; C1 a       查理·沃茨 Charlie Watts! G1 R: ?) z: ^' ^/ o% H: l- `

! r: E6 g( R# T
) k& `4 r5 o/ t$ f& u标  签 记载片 | 音乐 | 美国 | 2018 | ArethaFranklin | 记载 | 电影 | SIFF
! ]. I* Q, A5 Y5 n& A5 d7 U% p6 C: d$ Q
简  介  + q5 i  t. t: {" O
0 l# S. B9 d/ V6 w
  记叙“灵魂歌后”艾瑞莎·弗兰克林音乐会的记载片[奇异膏泽](Amazing Grace,暂译)终究问世,该片北美定档颁奖季,将率先在纽约、洛杉矶小范围上映,同时影片也将成为明年奥斯卡最好记载长片的有力图取者。
) Q+ @) L$ K5 F, L; U/ o0 g$ c8 f  1972年,艾瑞莎·弗兰克林推出专辑《奇异膏泽》,导演西德尼·波拉克按照艾瑞莎·弗兰克林在洛杉矶举行的两场音乐会拍摄了同名记载片,但影片因音效题目一向延映,制片艾伦·艾利奥特终极完成了影片的建造。2015年,该片曾一度计划亮相特柳赖德电影节、多伦多电影节,但因版权题目上映被叫停。艾瑞莎·弗兰克林于今年8月归天。
/ t/ \* z3 I3 f2 l& U
: P9 y( `+ _' N" _2 v4 ]获奖情况  
, v& l* I7 ~- d4 R1 j6 [4 e+ h2 e8 h. n  A0 _2 F8 W' o
  第53届美国国家影评人协会奖(2019)
2 }1 ~" W( m7 y% m! ^  最好记载片(提名)' ]: c: `; C6 w- F
  1. Video& A/ T. u2 }9 {! _# ~; g% V
  2. ID                                       : 1
      u6 {- ~0 S+ v. R
  3. Format                                   : AVC5 P5 K4 T( ~1 E% }+ h
  4. Format/Info                              : Advanced Video Codec
    % L- q/ c; o+ m3 @. R
  5. Format profile                           : <a href="/cdn-cgi/l/email-protection" class="__cf_email__" data-cfemail="773f1e101f373b435946">[email protected]</a>, h: P1 c- O9 a
  6. Format settings                          : CABAC / 9 Ref Frames
    8 j- B/ L( G- }/ f
  7. Format settings, CABAC                   : Yes& x& g" i8 I  i' A
  8. Format settings, Reference frames        : 9 frames* u. N% O) e! p9 A2 Q( N
  9. Codec ID                                 : V_MPEG4/ISO/AVC5 M4 b2 y5 Q6 @/ o8 g+ _+ x
  10. Duration                                 : 1 h 29 min
    ! D' k( a' D( u- M5 H8 W' n, T' _. @
  11. Bit rate                                 : 5 493 kb/s
    0 S1 I: k  g; @. W8 h' _- k
  12. Width                                    : 1 280 pixels% O; j8 S9 A, a/ \. T' D8 a
  13. Height                                   : 720 pixels
    $ s+ g3 l* A0 N! n! R+ V
  14. Display aspect ratio                     : 16:9' n& Y0 t5 k) W5 u
  15. Frame rate mode                          : Constant' N6 j2 K; u- F* ~9 t( H
  16. Frame rate                               : 23.976 (24000/1001) FPS% h& X% P4 |. @0 J$ V; _
  17. Color space                              : YUV
    / {& z7 ^0 \+ {' k2 h: q
  18. Chroma subsampling                       : 4:2:09 T3 e6 E; m  p; U0 b$ R
  19. Bit depth                                : 8 bits2 |, Q8 t5 r/ B) N. ~- v0 q
  20. Scan type                                : Progressive2 O$ R3 X. J& ?0 c
  21. Bits/(Pixel*Frame)                       : 0.249/ B6 j! Q& P  D# z, N
  22. Stream size                              : 3.43 GiB (78%)5 u! f6 h* t2 M9 {
  23. Writing library                          : x264 core 158 r2984 3759fcb
    1 E: D& }( O) u7 L
  24. Encoding settings                        : cabac=1 / ref=9 / deblock=1:-3:-3 / analyse=0x3:0x133 / me=umh / subme=9 / psy=1 / psy_rd=1.00:0.00 / mixed_ref=1 / me_range=24 / chroma_me=1 / trellis=1 / 8x8dct=1 / cqm=0 / deadzone=21,11 / fast_pskip=0 / chroma_qp_offset=-2 / threads=22 / lookahead_threads=3 / sliced_threads=0 / nr=0 / decimate=1 / interlaced=0 / bluray_compat=0 / constrained_intra=0 / bframes=8 / b_pyramid=2 / b_adapt=2 / b_bias=0 / direct=3 / weightb=1 / open_gop=0 / weightp=2 / keyint=250 / keyint_min=23 / scenecut=40 / intra_refresh=0 / rc_lookahead=60 / rc=2pass / mbtree=1 / bitrate=5493 / ratetol=1.0 / qcomp=0.60 / qpmin=0 / qpmax=69 / qpstep=4 / cplxblur=20.0 / qblur=0.5 / vbv_maxrate=62500 / vbv_bufsize=78125 / nal_hrd=none / filler=0 / ip_ratio=1.40 / aq=1:1.00! b! M4 g+ o. s" D! [
  25. Default                                  : Yes4 ^* U8 w! y: l& {
  26. Forced                                   : No) i9 {, G9 V0 x+ D" |! ?

  27. . q, U! A  c0 Z! i5 _# I
  28. Audio
    8 }1 K, w. v/ ^* n# P
  29. ID                                       : 2
    - u3 B! O- T/ ~3 `3 ~# r/ P
  30. Format                                   : DTS  E- b4 u8 A' B
  31. Format/Info                              : Digital Theater Systems
    0 l# C' x; h* c# m( k- H
  32. Codec ID                                 : A_DTS
    2 ?7 a' m& I) K$ y) X  `
  33. Duration                                 : 1 h 29 min0 {( }7 ^/ R$ ~2 Y- k, p, q, F
  34. Bit rate mode                            : Constant
    / I. S9 o1 k/ V: ^0 D; R
  35. Bit rate                                 : 1 509 kb/s! u  |( c% T  q, W( a) D/ V
  36. Channel(s)                               : 6 channels% M6 @3 G1 L: i7 h0 K* ?
  37. Channel layout                           : C L R Ls Rs LFE
    " Q, q5 L5 r& ~
  38. Sampling rate                            : 48.0 kHz
    7 y7 N" Q( E( |# \. i7 v6 T
  39. Frame rate                               : 93.750 FPS (512 SPF)
    9 P: N; \2 S; L; D; N/ l( h& C7 h
  40. Bit depth                                : 24 bits: l+ w" N, e: B. \3 a* m
  41. Compression mode                         : Lossy
    3 q' v6 y/ \* j/ o
  42. Stream size                              : 964 MiB (22%)9 o( S# W, [! |, J1 \) ?
  43. Language                                 : English4 g" w5 x; G  W! V9 G( L+ K  w. x
  44. Default                                  : Yes
    8 T; C, J  Q0 G! a/ D. c
  45. Forced                                   : No! d" @' u4 X  `" y  R) l8 j" }( K

  46. 9 B/ ?5 Y0 ^& J# C6 v+ T- I+ {
  47. Menu
    * E3 S1 G: d" v+ J, N! \& E
  48. 00:00:00.000                             : en:Chapter 01
    $ |/ z' }$ d, ~! F8 b1 g
  49. 00:06:22.882                             : en:Chapter 02% J4 i2 b. I$ b5 f( U# S$ m; k% m
  50. 00:10:07.607                             : en:Chapter 03
    ! t' U6 r4 H- v4 {4 P+ U4 w
  51. 00:15:50.283                             : en:Chapter 04* E" I* `( Q. L6 W( w
  52. 00:20:45.578                             : en:Chapter 05
    - `# Z1 p! I& |4 h4 a$ ?; {
  53. 00:24:10.240                             : en:Chapter 06
    1 T' y1 t( {0 I. r$ S; m
  54. 00:32:10.720                             : en:Chapter 07
    ; q& ~/ t9 O& o  t3 V
  55. 00:40:02.734                             : en:Chapter 08
    3 r$ @! f6 h2 b# A7 d: v& d
  56. 00:52:34.401                             : en:Chapter 09) T9 S) V+ E9 c; v7 V
  57. 01:00:31.586                             : en:Chapter 10
    ' m$ x( k1 v# y! v
  58. 01:07:25.416                             : en:Chapter 11
    . E3 \- {7 W3 m; B. e$ J' H: S  P
  59. 01:15:23.769                             : en:Chapter 12
复制代码

5 v5 O' |* a/ y$ G; H/ U0 ] 奇异膏泽/Aretha Franklin: 騷靈膏泽(港) Amazing.Grace.2018.LiMiTED.720p.BluRay.x264-CADAVER 4.38GB-2.png
: ]' f% T. O6 G1 ]/ Z+ Q" _- G% q  _4 G) N; b3 v
5 p% P3 J" Y" s9 C* {7 ^% V) r
7 P9 a, T& R. b8 A) w: M

" {6 D# p" J3 I5 p$ Z* b
$ y: M, v  j% G3 {
6 G' o  D  N( r. S& g! ]
VIP会员免费任意下载本站所有资源!---点击开通
回复

使用道具 举报

级别:荣升主角 Lv.5

注册时间
2019-2-3
最后登录
2020-2-18
听众
15
收听
0
主题
0
蓝光币
271 枚
贡献
0 点
发表于 2019-9-7 18:03:27 | 显示全部楼层
楼主发贴辛苦了,谢谢楼主分享!我觉得中国高清电影网是注册对了!
VIP会员免费任意下载本站所有资源!---点击开通
回复

使用道具 举报

级别:一线明星 Lv.8

注册时间
2019-4-24
最后登录
2020-2-18
听众
14
收听
0
主题
0
蓝光币
325 枚
贡献
0 点
发表于 2019-9-11 17:09:06 | 显示全部楼层
楼主发贴辛苦了,谢谢楼主分享!我觉得中国高清电影网是注册对了!
VIP会员免费任意下载本站所有资源!---点击开通
回复

使用道具 举报

级别:普通观众 Lv.2

注册时间
2019-7-1
最后登录
2020-1-27
听众
5
收听
0
主题
0
蓝光币
14 枚
贡献
0 点
QQ
发表于 2019-10-7 13:17:11 | 显示全部楼层
楼主发贴辛苦了,谢谢楼主分享!我觉得中国高清电影网是注册对了!
VIP会员免费任意下载本站所有资源!---点击开通
回复

使用道具 举报

懒得打字嘛,点击右侧快捷回复 【右侧内容,后台自定义】
您需要登录后才可以回帖 登录 | 立即注册

本版积分规则

Archiver|手机版|小黑屋| 中国高清网 |网站地图

GMT+8, 2020-2-19 08:25 , Processed in 0.212464 second(s), 38 queries .

Powered by HDchina X3.4

Copyright 2017-2019©HDchina.All right reserved

返回顶部 联系我们