查看: 41|回复: 2

[纪录片] 奇异恩典/Aretha Franklin: 騷靈恩典(港) Amazing.Grace.2018.LiMiTED.720p.BluRay.x264-CADAVER 4.38GB

[复制链接]

 成长值: 2570

级别:资源管理组

注册时间
2017-10-20
最后登录
2019-9-21
听众
1
收听
0
主题
83009
蓝光币
49621 枚
贡献
7337 点
发表于 2019-9-7 11:04:56 | 显示全部楼层 |阅读模式
奇异膏泽/Aretha Franklin: 騷靈膏泽(港) Amazing.Grace.2018.LiMiTED.720p.BluRay.x264-CADAVER 4.38GB-1.png
. N3 m: m' i) t
( w; `6 S7 T+ n* ^译  名 奇异膏泽 / Aretha Franklin: 騷靈膏泽(港)
: {$ E& w: t8 O4 x9 y- k7 L片  名 Amazing Grace
' p( K' ]& U5 k# ^9 j年  代 2018$ K) k0 r( l( P$ w
产  地 美国  ^7 G$ n6 i; m7 M
类  别 记载片
% m4 {" y# K6 }, x" R# A语  言 英语
! b# f* {) t+ Q# ^; p上映日期 2018-11-12(纽约记载片展)
+ o0 k/ X; j3 PIMDb评分  7.7/10 from 1287 users' A, x) P  P# Y/ u; H! {: K
IMDb链接  http://www.imdb.com/title/tt49354621 z3 A9 K: i  e2 {+ F) f" |
豆瓣评分 7.5/10 from 304 users: r! B( r" M3 [  X  W4 T" p
豆瓣链接 https://movie.douban.com/subject/26591616/
- K0 e- T! [  W7 Z1 Z片  长 89分钟
+ G  ]6 E3 T, `$ }/ F* z导  演 西德尼·波拉克 Sydney Pollack
/ c8 K1 F1 x4 {. e# m  f- z主  演 艾瑞莎·弗兰克林 Aretha Franklin6 f6 D2 y- b2 O- z3 |. g: W
       米克·贾格尔 Mick Jagger
, _" i1 r7 ~8 c3 {% L1 ?       西德尼·波拉克 Sydney Pollack0 F3 o  M- t: x: n, n0 }& q/ T
       查理·沃茨 Charlie Watts
# e1 ^) ]/ q; X- w' H+ l
2 S+ F; q: A8 U6 M+ y% B4 {. a5 ~- O" g% k9 r% N1 j: ]& a/ |
标  签 记载片 | 音乐 | 美国 | 2018 | ArethaFranklin | 记载 | 电影 | SIFF
; x/ ]( V3 H1 _7 v* W( ]7 |) C- {$ P) l( `; _2 H
简  介  + H% C4 a8 m* z3 F
  _6 x! D# p, i7 |5 T1 w: k
  记叙“灵魂歌后”艾瑞莎·弗兰克林音乐会的记载片[奇异膏泽](Amazing Grace,暂译)终究问世,该片北美定档颁奖季,将率先在纽约、洛杉矶小范围上映,同时影片也将成为明年奥斯卡最好记载长片的有力图取者。' m' N, Q; z$ \0 c( G" r
  1972年,艾瑞莎·弗兰克林推出专辑《奇异膏泽》,导演西德尼·波拉克按照艾瑞莎·弗兰克林在洛杉矶举行的两场音乐会拍摄了同名记载片,但影片因音效题目一向延映,制片艾伦·艾利奥特终极完成了影片的建造。2015年,该片曾一度计划亮相特柳赖德电影节、多伦多电影节,但因版权题目上映被叫停。艾瑞莎·弗兰克林于今年8月归天。
. |: d: n* C3 ?6 W9 M9 B, B8 O5 Y( S
获奖情况  . e, O! u" j. w

' E2 b: z8 D4 q6 \! F3 q  第53届美国国家影评人协会奖(2019)+ Q" B# i* c% ^
  最好记载片(提名)
$ c! h6 x8 J* f$ L2 m0 }% N* l8 Y( t
  1. Video
    % N- P3 W0 n. _5 m
  2. ID                                       : 1
    + i/ l7 l# M. {/ H
  3. Format                                   : AVC
    . W$ V* R' m7 G
  4. Format/Info                              : Advanced Video Codec6 p, _: p& J6 {: [3 ]
  5. Format profile                           : <a href="/cdn-cgi/l/email-protection" class="__cf_email__" data-cfemail="773f1e101f373b435946">[email protected]</a>/ Y- U7 `* e6 e. k5 s
  6. Format settings                          : CABAC / 9 Ref Frames$ {  p! s% P: Y  m5 z! ?
  7. Format settings, CABAC                   : Yes7 ]) T2 @3 r' r- d
  8. Format settings, Reference frames        : 9 frames
    4 t6 k" {. k. s0 C# I
  9. Codec ID                                 : V_MPEG4/ISO/AVC% G! ^( K. [: g
  10. Duration                                 : 1 h 29 min
    1 p0 T/ ^( T& |: I$ k8 n, v) d
  11. Bit rate                                 : 5 493 kb/s
    9 k6 B* i  m0 z* B$ v, I$ Y/ x
  12. Width                                    : 1 280 pixels- w+ \! \( P' B0 {" i
  13. Height                                   : 720 pixels2 p/ f' J4 l" G# ~" K% i
  14. Display aspect ratio                     : 16:93 o* l- K4 }9 N1 K
  15. Frame rate mode                          : Constant+ g; e) l0 S+ y
  16. Frame rate                               : 23.976 (24000/1001) FPS
    7 |( r2 L7 G2 i0 O
  17. Color space                              : YUV3 v- O$ d4 g6 E3 U& Z+ `
  18. Chroma subsampling                       : 4:2:0
    ; t; f5 `! k: f( N+ J" Y
  19. Bit depth                                : 8 bits. M$ o) |; |$ M6 K7 E
  20. Scan type                                : Progressive8 v. J* E# y. Z5 O
  21. Bits/(Pixel*Frame)                       : 0.2495 V& C& k' R0 E4 U+ O
  22. Stream size                              : 3.43 GiB (78%)9 ]5 }7 u% _# ?+ V
  23. Writing library                          : x264 core 158 r2984 3759fcb8 p5 w4 N- R, J+ {
  24. Encoding settings                        : cabac=1 / ref=9 / deblock=1:-3:-3 / analyse=0x3:0x133 / me=umh / subme=9 / psy=1 / psy_rd=1.00:0.00 / mixed_ref=1 / me_range=24 / chroma_me=1 / trellis=1 / 8x8dct=1 / cqm=0 / deadzone=21,11 / fast_pskip=0 / chroma_qp_offset=-2 / threads=22 / lookahead_threads=3 / sliced_threads=0 / nr=0 / decimate=1 / interlaced=0 / bluray_compat=0 / constrained_intra=0 / bframes=8 / b_pyramid=2 / b_adapt=2 / b_bias=0 / direct=3 / weightb=1 / open_gop=0 / weightp=2 / keyint=250 / keyint_min=23 / scenecut=40 / intra_refresh=0 / rc_lookahead=60 / rc=2pass / mbtree=1 / bitrate=5493 / ratetol=1.0 / qcomp=0.60 / qpmin=0 / qpmax=69 / qpstep=4 / cplxblur=20.0 / qblur=0.5 / vbv_maxrate=62500 / vbv_bufsize=78125 / nal_hrd=none / filler=0 / ip_ratio=1.40 / aq=1:1.00
    , n2 b2 W  N9 J/ Z6 T
  25. Default                                  : Yes
    2 V* p( q$ H  u1 m4 u: L0 W" O
  26. Forced                                   : No5 P$ a7 u2 |! d. r
  27. 7 \' [4 r, y# j# i% j
  28. Audio
    : J  N, q) j. j% x; o: s) q: `
  29. ID                                       : 2
    * X1 M- j. J* ?. ]9 b3 N
  30. Format                                   : DTS
    6 J% ]7 a4 c  |( ~$ }3 D
  31. Format/Info                              : Digital Theater Systems2 d6 `4 L  }' y+ n5 b9 V7 m
  32. Codec ID                                 : A_DTS, v7 A) D( W6 k
  33. Duration                                 : 1 h 29 min. F- t) s* T3 `7 [' Y1 W
  34. Bit rate mode                            : Constant6 n' s0 u) A# e" f# v" Q
  35. Bit rate                                 : 1 509 kb/s
    , |- Z/ ]- f6 R
  36. Channel(s)                               : 6 channels
    - N6 ]9 G" r; y" n
  37. Channel layout                           : C L R Ls Rs LFE2 Q' r) u$ B9 T% N7 Y, I' p  H" M
  38. Sampling rate                            : 48.0 kHz
    $ }' H- i0 v& W; Y3 O* n: [
  39. Frame rate                               : 93.750 FPS (512 SPF)+ x+ Y2 ^9 D" B  |8 R
  40. Bit depth                                : 24 bits
    1 f1 ?5 I! M! g" B
  41. Compression mode                         : Lossy! _9 k0 w  O, m. H0 ^7 Z5 n% D/ P
  42. Stream size                              : 964 MiB (22%)+ ~( V7 ]9 x% |8 x; Z  O0 `  Q
  43. Language                                 : English
    * M) z$ Q1 p7 m- h, N" i# R
  44. Default                                  : Yes8 U' x. J: j- z( `: {
  45. Forced                                   : No9 E; r, ^; ]0 \+ c1 o+ ^

  46. ! }6 r8 F% o& _  d5 G
  47. Menu' {% {  Q5 u! z) C2 x
  48. 00:00:00.000                             : en:Chapter 018 O7 N* ]5 `! n5 g8 {
  49. 00:06:22.882                             : en:Chapter 02
    # l0 J8 Y4 j, l/ q! j$ U- i. F
  50. 00:10:07.607                             : en:Chapter 03' V7 c+ E, K3 ~- i* @
  51. 00:15:50.283                             : en:Chapter 048 R' ~, A! M8 m, y) B
  52. 00:20:45.578                             : en:Chapter 05  S% z* G) U- U  l( D
  53. 00:24:10.240                             : en:Chapter 06/ X, ^. ^$ {# Q6 W. `' f
  54. 00:32:10.720                             : en:Chapter 07& b: \; ~' t9 u! d1 F* x0 t  m, z
  55. 00:40:02.734                             : en:Chapter 082 z8 P% g% N# k
  56. 00:52:34.401                             : en:Chapter 09! @0 C) X' N. ]) E* ]
  57. 01:00:31.586                             : en:Chapter 10
    - S, E3 t6 N# i+ i. X# V/ I
  58. 01:07:25.416                             : en:Chapter 11
    ' ]& Q( W+ T5 y) N+ h
  59. 01:15:23.769                             : en:Chapter 12
复制代码

# p+ L8 K  ~1 D: n& ]* I 奇异膏泽/Aretha Franklin: 騷靈膏泽(港) Amazing.Grace.2018.LiMiTED.720p.BluRay.x264-CADAVER 4.38GB-2.png
" ?8 h+ m1 n. M) C0 S+ j, C9 f- M
& I; p/ B5 G; T6 Z, `8 |; n* f( s! C0 @$ u6 i$ z6 G3 ]
9 P; t/ Q" ~1 |, g3 {

# `. v" F) ^* I: r! D8 i# X3 @. b
' ?7 g8 m" ?: Z7 c$ u5 k$ L4 f4 r" @1 s+ x; h3 O
VIP会员免费任意下载本站所有资源!---点击开通
回复

使用道具 举报

级别:荣升主角 Lv.5

注册时间
2019-2-3
最后登录
2019-9-20
听众
14
收听
0
主题
0
蓝光币
173 枚
贡献
0 点
发表于 2019-9-7 18:03:27 | 显示全部楼层
楼主发贴辛苦了,谢谢楼主分享!我觉得中国高清电影网是注册对了!
VIP会员免费任意下载本站所有资源!---点击开通
回复

使用道具 举报

级别:领衔主演 Lv.6

注册时间
2019-4-24
最后登录
2019-9-20
听众
13
收听
0
主题
0
蓝光币
111 枚
贡献
0 点
发表于 2019-9-11 17:09:06 | 显示全部楼层
楼主发贴辛苦了,谢谢楼主分享!我觉得中国高清电影网是注册对了!
VIP会员免费任意下载本站所有资源!---点击开通
回复

使用道具 举报

懒得打字嘛,点击右侧快捷回复 【右侧内容,后台自定义】
您需要登录后才可以回帖 登录 | 立即注册

本版积分规则

QQ|Archiver|手机版|小黑屋| 中国高清网 |网站地图

GMT+8, 2019-9-21 14:41 , Processed in 0.502820 second(s), 39 queries .

Powered by HDchina X3.4

Copyright 2017-2019©HDchina.All right reserved

返回顶部 联系我们