查看: 69|回复: 0

[剧情片] 第七天 The.7th.Day.2004.1080p.BluRay.x264-USURY 7.65GB

[复制链接]

 成长值: 2560

级别:资源管理组

注册时间
2017-10-20
最后登录
2019-9-19
听众
1
收听
0
主题
82921
蓝光币
49296 枚
贡献
7249 点
发表于 2019-8-17 15:27:40 | 显示全部楼层 |阅读模式
第七天 The.7th.Day.2004.1080p.BluRay.x264-USURY 7.65GB-1.png

译  名 第七天 / The 7th Day / The Seventh Day / 第七日
片  名 El 7o día
年  代 2004
产  地 西班牙
类  别 剧情
语  言 西班牙语
上映日期 2004-10-29
IMDb评分  6.7/10 from 1039 users
IMDb链接  http://www.imdb.com/title/tt0380736
豆瓣评分 7.1/10 from 104 users
豆瓣链接 https://movie.douban.com/subject/1422035/
片  长 96分钟
导  演 卡洛斯·绍拉 Carlos Saura
编  剧 拉伊·洛里加 Ray Loriga
主  演 胡安·迭戈 Juan Diego
       何塞·路易斯·戈麦斯 José Luis Gómez
       何塞·加西亚 José Garcia


标  签 西班牙 | 卡洛斯绍拉 | 卡洛斯·绍拉 | 剧情 | 西班牙电影 | 暴力 | CarlosSaura | Carlos_Saura

简  介  

  本片按照实在故事改编。故事发生在1990年的八月,位于西班牙半岛中心的贫瘠的小村落上。由于家属间的冤仇,两兄弟杀戮了另一家属的九条人命。伊莎贝尔(Yohana Cobo饰)那时只要16岁,她的两个妹妹就在此次屠杀中丧生。
  1. Video
  2. ID                                       : 1
  3. Format                                   : AVC
  4. Format/Info                              : Advanced Video Codec
  5. Format profile                           : <a href="/cdn-cgi/l/email-protection" class="__cf_email__" data-cfemail="074f6e606f474b332936">[email protected]</a>
  6. Format settings                          : CABAC / 4 Ref Frames
  7. Format settings, CABAC                   : Yes
  8. Format settings, Reference frames        : 4 frames
  9. Codec ID                                 : V_MPEG4/ISO/AVC
  10. Duration                                 : 1 h 40 min
  11. Bit rate                                 : 9 436 kb/s
  12. Width                                    : 1 920 pixels
  13. Height                                   : 1 040 pixels
  14. Display aspect ratio                     : 1.85:1
  15. Frame rate mode                          : Constant
  16. Frame rate                               : 23.976 (24000/1001) FPS
  17. Color space                              : YUV
  18. Chroma subsampling                       : 4:2:0
  19. Bit depth                                : 8 bits
  20. Scan type                                : Progressive
  21. Bits/(Pixel*Frame)                       : 0.197
  22. Stream size                              : 6.59 GiB (86%)
  23. Writing library                          : x264 core 157 r2969 d4099dd
  24. Encoding settings                        : cabac=1 / ref=4 / deblock=1:-3:-3 / analyse=0x3:0x133 / me=umh / subme=9 / psy=1 / psy_rd=1.00:0.00 / mixed_ref=1 / me_range=16 / chroma_me=1 / trellis=2 / 8x8dct=1 / cqm=0 / deadzone=21,11 / fast_pskip=0 / chroma_qp_offset=-2 / threads=24 / lookahead_threads=2 / sliced_threads=0 / nr=0 / decimate=1 / interlaced=0 / bluray_compat=0 / constrained_intra=0 / bframes=3 / b_pyramid=2 / b_adapt=1 / b_bias=0 / direct=3 / weightb=1 / open_gop=0 / weightp=2 / keyint=240 / keyint_min=24 / scenecut=40 / intra_refresh=0 / rc_lookahead=50 / rc=2pass / mbtree=1 / bitrate=9436 / ratetol=1.0 / qcomp=0.60 / qpmin=0 / qpmax=69 / qpstep=4 / cplxblur=20.0 / qblur=0.5 / ip_ratio=1.40 / aq=1:1.00
  25. Language                                 : English
  26. Default                                  : Yes
  27. Forced                                   : No

  28. Audio
  29. ID                                       : 2
  30. Format                                   : DTS
  31. Format/Info                              : Digital Theater Systems
  32. Codec ID                                 : A_DTS
  33. Duration                                 : 1 h 40 min
  34. Bit rate mode                            : Constant
  35. Bit rate                                 : 1 509 kb/s
  36. Channel(s)                               : 2 channels
  37. Channel layout                           : L R
  38. Sampling rate                            : 48.0 kHz
  39. Frame rate                               : 93.750 FPS (512 SPF)
  40. Bit depth                                : 24 bits
  41. Compression mode                         : Lossy
  42. Stream size                              : 1.06 GiB (14%)
  43. Language                                 : Spanish
  44. Default                                  : Yes
  45. Forced                                   : No

  46. Text
  47. ID                                       : 3
  48. Format                                   : UTF-8
  49. Codec ID                                 : S_TEXT/UTF8
  50. Codec ID/Info                            : UTF-8 Plain Text
  51. Duration                                 : 1 h 35 min
  52. Bit rate                                 : 32 b/s
  53. Count of elements                        : 792
  54. Stream size                              : 22.9 KiB (0%)
  55. Title                                    : English
  56. Language                                 : English
  57. Default                                  : Yes
  58. Forced                                   : Yes
复制代码

第七天 The.7th.Day.2004.1080p.BluRay.x264-USURY 7.65GB-2.png






VIP会员免费任意下载本站所有资源!---点击开通
回复

使用道具 举报

懒得打字嘛,点击右侧快捷回复 【右侧内容,后台自定义】
您需要登录后才可以回帖 登录 | 立即注册

本版积分规则

QQ|Archiver|手机版|小黑屋| 中国高清网 |网站地图

GMT+8, 2019-9-20 05:02 , Processed in 0.395725 second(s), 39 queries .

Powered by HDchina X3.4

Copyright 2017-2019©HDchina.All right reserved

返回顶部 联系我们