查看: 31|回复: 1

[纪录片] 我的温尼伯湖/故城风雪行 My.Winnipeg.2007.1080p.BluRay.x264-WaLMaRT 5.46GB

[复制链接]

 成长值: 2200

级别:资源管理组

注册时间
2017-10-20
最后登录
2019-8-17
听众
1
收听
0
主题
80689
蓝光币
41951 枚
贡献
5016 点
发表于 4 天前 | 显示全部楼层 |阅读模式
我的温尼伯湖/故城风雪行 My.Winnipeg.2007.1080p.BluRay.x264-WaLMaRT 5.46GB-1.jpg

译  名 我的温尼伯湖 / 故城风雪行 / 梦游冰雪地 / 维尼佩格我的家
片  名 My Winnipeg
年  代 2007
产  地 加拿大
类  别 剧情 / 记载片 / 历史
语  言 英语
上映日期 2007-09-07
IMDb评分  7.6/10 from 4541 users
IMDb链接  http://www.imdb.com/title/tt1093842
豆瓣评分 8.1/10 from 998 users
豆瓣链接 https://movie.douban.com/subject/2285468/
片  长 Argentina: 80 分钟
导  演 盖伊·马丁 Guy Maddin
编  剧 盖伊·马丁 Guy Maddin / George Toles
主  演 安妮·萨维奇 Ann Savage
       路易斯·涅 Louis Negin
       艾米·斯图尔特 Amy Stewart
       达西·菲尔 Darcy Fehr
       Brendan Cade


标  签 加拿大 | 记载片 | 黑白 | 盖伊·马丁 | 2007 | 加拿大电影 | Guy_Maddin | GuyMaddin

简  介  

  位于加拿大曼尼托巴省的城镇温尼伯,听来悠远陌生,在盖·马汀的掌镜下,却天生了乡愁的有机体。透过梦呓的旁白说书、迷幻写实的黑白光影,导演亲身领路,娓娓道来故乡的历史、自然与人文踪影,以及谜样传闻。建构故事与剪接纪实之余,导演对故乡的抒怀向往与奇想,让影片凭借着奥秘和追思穿越时空,恍如隔世却又密切温馨。
  现代, 加拿大 Manitoba 省 Winnipeg 市~ 导演 Guy Maddin 独坐在火车上, 正预备分开黑红色的故乡 Winnipeg, 和处处监管着他一举一动的母亲~ 一路上, 他在半梦半醒中忆述故乡的各种往事, 一些布满回忆的修建物, 还有童年时与家人相处的点点滴滴~
  评语
  加拿大导演 Guy Maddin 比来几部电影都沾上一点自传气味, “Cowards Bend the Knees” (弱者无腰骨) [2003] 以自己为配角讲冰上曲棍球, 上一部长片 “Brand Upon the Brain!” (追思少年狂) [2006] 仍充任配角诉说一个奇情侦察故事, 今次干脆以自己的童年和故乡 Winnipeg 的历史为题, 拍出一部布满奇想的自传电影~ 又大概如映后摄影师兼监制 Jody Shapiro 及导演在拜候中所言, 称之为一部 “空想记载片” (docu-fantasia) 或加倍合适~
  Guy Maddin 一向扮默片残片的新潮复古气概在这里仍然处处可见, 不外这手法在此更成为一种适用而贴切的表示形式, 配合有如印象主义式的超快速剪接和导演本人不停自言自语的心里独白, 以表达配角 Guy Maddin (Darcy Fehr 饰) 半梦半醒的紊乱思绪和复杂庞杂的回忆片断~ 黑白胶卷和残片朦胧不清的结果, 也恰好符合终年严寒飘雪, 色彩单调的城市 Winnipeg 的风采~
  在 “My Winnipeg” 故事中反覆重现的各种元素, 简直像是心理分析理论的课本, 例如缠绕心头不去的童年往事, 儿子对母亲又爱又怕的冲突关系~ 那些一闪即逝的字幕卡就如被抑压的旧记忆, 配角对河流交汇处和母亲双腿的迷恋, 就如他一向潜藏在心底的 fixation~
  不外, 如果太严厉和理论性地分析这电影, 或会疏忽这实在是一部很是风趣, 很是动人, 很是富创意, 决心让实在与虚拟混驳不清的怪异作品~ 电影一方面把 Winnipeg 这个天气异常严寒的偏僻城市写成一个富足诗意, 满街都是梦游者的地方, 又把城中的历史大事串联成一个个私人的回忆, 对一些具记载代价的修建物加上小我的感情投射, 爸爸的冰上曲棍球场和母亲的发廊固然是的场所, 就连镇上的名流们也成为追思迷恋的工具~
  1. Video
  2. ID : 1
  3. Format : AVC
  4. Format/Info : Advanced Video Codec
  5. Format profile : <a href="/cdn-cgi/l/email-protection" class="__cf_email__" data-cfemail="ace4c5cbc4ece098829d">[email protected]</a>
  6. Format settings, CABAC : Yes
  7. Format settings, ReFrames : 4 frames
  8. Codec ID : V_MPEG4/ISO/AVC
  9. Duration : 1h 20mn
  10. Bit rate : 8 253 Kbps
  11. Width : 1 440 pixels
  12. Height : 1 080 pixels
  13. Display aspect ratio : 4:3
  14. Frame rate mode : Constant
  15. Frame rate : 23.976 fps
  16. Color space : YUV
  17. Chroma subsampling : 4:2:0
  18. Bit depth : 8 bits
  19. Scan type : Progressive
  20. Bits/(Pixel*Frame) : 0.221
  21. Stream size : 4.51 GiB (83%)
  22. Writing library : x264 core 146 r2538 121396c
  23. Encoding settings : cabac=1 / ref=4 / deblock=1:0:0 / analyse=0x3:0x133 / me=umh / subme=8 / psy=1 / psy_rd=1.00:0.00 / mixed_ref=1 / me_range=16 / chroma_me=1 / trellis=1 / 8x8dct=1 / cqm=0 / deadzone=21,11 / fast_pskip=0 / chroma_qp_offset=-2 / threads=6 / lookahead_threads=1 / sliced_threads=0 / nr=0 / decimate=1 / interlaced=0 / bluray_compat=0 / constrained_intra=0 / bframes=3 / b_pyramid=2 / b_adapt=1 / b_bias=0 / direct=1 / weightb=1 / open_gop=0 / weightp=2 / keyint=240 / keyint_min=24 / scenecut=40 / intra_refresh=0 / rc_lookahead=40 / rc=2pass / mbtree=1 / bitrate=8253 / ratetol=1.0 / qcomp=0.60 / qpmin=0 / qpmax=69 / qpstep=4 / cplxblur=20.0 / qblur=0.5 / ip_ratio=1.40 / aq=1:1.00
  24. Language : English
  25. Default : Yes
  26. Forced : No
  27. DURATION : 01:20:05.464000000
  28. NUMBER_OF_FRAMES : 115216
  29. NUMBER_OF_BYTES : 4953028957
  30. _STATISTICS_WRITING_APP : mkvmerge v7.6.0 (\'Garden of Dreams\') 64bit built on Feb 8 2015 13:04:34
  31. _STATISTICS_WRITING_DATE_UTC : 2015-04-30 22:23:41
  32. _STATISTICS_TAGS : BPS DURATION NUMBER_OF_FRAMES NUMBER_OF_BYTES

  33. Audio
  34. ID : 2
  35. Format : DTS
  36. Format/Info : Digital Theater Systems
  37. Mode : 16
  38. Format settings, Endianness : Big
  39. Codec ID : A_DTS
  40. Duration : 1h 20mn
  41. Bit rate mode : Constant
  42. Bit rate : 1 509 Kbps
  43. Channel(s) : 2 channels
  44. Channel positions : Front: L R
  45. Sampling rate : 48.0 KHz
  46. Bit depth : 24 bits
  47. Compression mode : Lossy
  48. Stream size : 864 MiB (15%)
  49. Language : English
  50. Default : Yes
  51. Forced : No
复制代码

我的温尼伯湖/故城风雪行 My.Winnipeg.2007.1080p.BluRay.x264-WaLMaRT 5.46GB-2.png






回复

使用道具 举报

级别:专业龙套 Lv.4

注册时间
2019-1-18
最后登录
2019-8-17
听众
11
收听
0
主题
0
蓝光币
377 枚
贡献
0 点
发表于 4 天前 | 显示全部楼层
楼主辛苦了,谢谢分享
回复

使用道具 举报

懒得打字嘛,点击右侧快捷回复 【右侧内容,后台自定义】
您需要登录后才可以回帖 登录 | 立即注册

本版积分规则

QQ|Archiver|手机版|小黑屋| 中国高清网 |网站地图

GMT+8, 2019-8-17 20:57 , Processed in 0.497599 second(s), 39 queries .

Powered by HDchina X3.4

Copyright 2017-2019©HDchina.All right reserved

返回顶部 联系我们