查看: 30|回复: 1

[纪录片] 诺查丹玛斯2012 Nostradamus.2012.2009.1080p.BluRay.x264-7o9x 6.56GB

[复制链接]

 成长值: 2200

级别:资源管理组

注册时间
2017-10-20
最后登录
2019-8-17
听众
1
收听
0
主题
80689
蓝光币
41947 枚
贡献
5016 点
发表于 4 天前 | 显示全部楼层 |阅读模式
诺查丹玛斯2012 Nostradamus.2012.2009.1080p.BluRay.x264-7o9x 6.56GB-1.jpg

译  名 诺查丹玛斯2012
片  名 Nostradamus:2012
年  代 2009
产  地 美国
类  别 记载片 / 历史
语  言 英语
上映日期 2009-01-04
IMDb评分  4.8/10 from 1080 users
IMDb链接  http://www.imdb.com/title/tt1358232
豆瓣评分 6.6/10 from 163 users
豆瓣链接 https://movie.douban.com/subject/3842246/
片  长 120分钟
导  演 Andy Pickard
编  剧 Sarah Hollister / Larry Weitzman
主  演 Vincent Bridges
       James Lurie
       Gregg Braden


标  签 记载片 | 2012 | 预言 | 美国 | 玛雅 | 灾难 | 新时代 | 历史频道

简  介  

  预言家们眼里的2012年和我们噩梦里的场景有什么类似之处吗?
  从危地马拉森林里的奥秘巫师到霍皮人长老,从玛雅萨满巫师到现代社会的预言家,他们对于天下末日的警告在一些使人震动的现代布景下展开。
  援用
  诺查丹马斯(拉丁文名字:Nostradamus),亦翻译为诺斯特拉达姆士。原名米歇尔·德·诺斯特罗达姆(法语原名:Michel de Nostredame),原姓吉素力(Gassonet),生于1503年12月14的法国,死于1566年7月2日。法国籍犹太裔预言家,精通希伯来文和希腊文,留下以四行体诗写成的预言集《百诗集》(Les Propheties,1555年头版,《诸世纪》一译名为误译)一部。他影响深远,连法王亨利二世都召请入宫,请他为国家预言休咎祸福。五年以后,分开宫庭,来到了沙隆,花了四年的时候完成一本奇书,就是《百诗集》。有研讨者从这些短诗中「看到」对很多历史事务(如法国大反动、希特勒之突起)及重要发现(如飞机、原子弹)的预言。因诺斯特拉达姆士的预言,不管他生前死后,仍吸引了天下各地崇敬者。《百诗篇》出书后,直到现在仍然很是畅销。很多热情者,将他的预言与天下首要事务分折,并找到应验的地方。相比之下,大多学者以为诺斯特拉达姆士四行诗体预言模煳不清,预言的「应验」是它的描写太普遍,没有证据证实预言诗的真确性,也没有证据证实预言诗确切描写某一件事上。但是,诺斯特拉达姆在法国文艺复兴期间被受重视,而现今出格是在前言和普遍的文化,而且和同等著名的预言圣经密码预言相比力。
  1. Video
  2. ID                                       : 1
  3. Format                                   : AVC
  4. Format/Info                              : Advanced Video Codec
  5. Format profile                           : <a href="/cdn-cgi/l/email-protection" class="__cf_email__" data-cfemail="86ceefe1eec6cab2a8b7">[email protected]</a>
  6. Format settings, CABAC                   : Yes
  7. Format settings, ReFrames                : 4 frames
  8. Codec ID                                 : V_MPEG4/ISO/AVC
  9. Duration                                 : 1h 30mn
  10. Bit rate                                 : 8 844 Kbps
  11. Width                                    : 1 920 pixels
  12. Height                                   : 1 080 pixels
  13. Display aspect ratio                     : 16:9
  14. Frame rate mode                          : Constant
  15. Frame rate                               : 23.976 (24000/1001) fps
  16. Original frame rate                      : 23.976 (23976/1000) fps
  17. Color space                              : YUV
  18. Chroma subsampling                       : 4:2:0
  19. Bit depth                                : 8 bits
  20. Scan type                                : Progressive
  21. Bits/(Pixel*Frame)                       : 0.178
  22. Stream size                              : 5.47 GiB (83%)
  23. Writing library                          : x264 core 114 r1924 08d04a4
  24. Encoding settings                        : cabac=1 / ref=4 / deblock=1:0:0 / analyse=0x3:0x133 / me=umh / subme=7 / psy=1 / psy_rd=1.00:0.00 / mixed_ref=1 / me_range=16 / chroma_me=1 / trellis=1 / 8x8dct=1 / cqm=0 / deadzone=21,11 / fast_pskip=0 / chroma_qp_offset=-2 / threads=12 / sliced_threads=0 / nr=0 / decimate=1 / interlaced=0 / constrained_intra=0 / bframes=3 / b_pyramid=2 / b_adapt=1 / b_bias=0 / direct=1 / weightb=1 / open_gop=0 / weightp=2 / keyint=250 / keyint_min=23 / scenecut=40 / intra_refresh=0 / rc_lookahead=40 / rc=2pass / mbtree=1 / bitrate=8844 / ratetol=1.0 / qcomp=0.60 / qpmin=0 / qpmax=69 / qpstep=4 / cplxblur=20.0 / qblur=0.5 / ip_ratio=1.40 / aq=1:1.00
  25. Language                                 : English
  26. Default                                  : Yes
  27. Forced                                   : No

  28. Audio
  29. ID                                       : 2
  30. Format                                   : DTS
  31. Format/Info                              : Digital Theater Systems
  32. Mode                                     : 16
  33. Format settings, Endianness              : Big
  34. Codec ID                                 : A_DTS
  35. Duration                                 : 1h 30mn
  36. Bit rate mode                            : Constant
  37. Bit rate                                 : 1 509 Kbps
  38. Channel(s)                               : 2 channels
  39. Channel positions                        : Front: L R
  40. Sampling rate                            : 48.0 KHz
  41. Frame rate                               : 93.750 fps (512 spf)
  42. Bit depth                                : 24 bits
  43. Compression mode                         : Lossy
  44. Stream size                              : 978 MiB (15%)
  45. Language                                 : English
  46. Default                                  : Yes
  47. Forced                                   : No
复制代码

诺查丹玛斯2012 Nostradamus.2012.2009.1080p.BluRay.x264-7o9x 6.56GB-2.png 诺查丹玛斯2012 Nostradamus.2012.2009.1080p.BluRay.x264-7o9x 6.56GB-3.png 诺查丹玛斯2012 Nostradamus.2012.2009.1080p.BluRay.x264-7o9x 6.56GB-4.png 诺查丹玛斯2012 Nostradamus.2012.2009.1080p.BluRay.x264-7o9x 6.56GB-5.png 诺查丹玛斯2012 Nostradamus.2012.2009.1080p.BluRay.x264-7o9x 6.56GB-6.png 诺查丹玛斯2012 Nostradamus.2012.2009.1080p.BluRay.x264-7o9x 6.56GB-7.png






回复

使用道具 举报

级别:专业龙套 Lv.4

注册时间
2019-1-18
最后登录
2019-8-17
听众
11
收听
0
主题
0
蓝光币
377 枚
贡献
0 点
发表于 4 天前 | 显示全部楼层
楼主辛苦了,谢谢分享
回复

使用道具 举报

懒得打字嘛,点击右侧快捷回复 【右侧内容,后台自定义】
您需要登录后才可以回帖 登录 | 立即注册

本版积分规则

QQ|Archiver|手机版|小黑屋| 中国高清网 |网站地图

GMT+8, 2019-8-17 20:33 , Processed in 0.442660 second(s), 39 queries .

Powered by HDchina X3.4

Copyright 2017-2019©HDchina.All right reserved

返回顶部 联系我们