查看: 738|回复: 9

[REMUX.HEVC] 复仇者联盟4:终局之战 Avengers.Endgame.2019.2160p.BluRay.REMUX.HEVC.DTS-HD.MA.TrueHD.7.1.Atmos-FGT 61.38GB

[复制链接]

 成长值: 2270

级别:资源管理组

注册时间
2017-10-20
最后登录
2019-8-23
听众
1
收听
0
主题
81029
蓝光币
43234 枚
贡献
5356 点
发表于 2019-8-3 00:35:55 | 显示全部楼层 |阅读模式
复仇者同盟4:终局之战  Avengers.Endgame.2019.2160p.BluRay.REMUX.HEVC.DTS-HD.MA.TrueHD.7.1.Atmos-FGT 61.38GB-1.png

译  名 复仇者同盟4:终局之战 / AVG4 / Avengers: Infinity War - Part II / The Avengers 3: Part 2 / The Avengers 4: Endgame / 复仇者同盟3:无尽之战(下) / 复联4
片  名 Avengers: Endgame
年  代 2019
产  地 美国
类  别 行动 / 科幻 / 奇异 / 冒险
语  言 英语 / 日语 / 科萨语
上映日期 2019-04-24(中国大陆) / 2019-04-26(美国)
IMDb评分 8.7/10 from 487015 users
IMDb链接 http://www.imdb.com/title/tt4154796
豆瓣评分 8.6/10 from 630015 users
豆瓣链接 https://movie.douban.com/subject/26100958/
片  长 181分钟
导  演 安东尼·罗素 Anthony Russo / 乔·罗素 Joe Russo
编  剧 克里斯托弗·马库斯 Christopher Markus / 斯蒂芬·麦克菲利 Stephen McFeely / 斯坦·李 Stan Lee / 杰克·科比 Jack Kirby / 吉姆·斯特林 Jim Starlin
主  演 小罗伯特·唐尼 Robert Downey Jr.
      克里斯·埃文斯 Chris Evans
      马克·鲁弗洛 Mark Ruffalo
      克里斯·海姆斯沃斯 Chris Hemsworth
      斯嘉丽·约翰逊 Scarlett Johansson
      杰瑞米·雷纳 Jeremy Renner
      保罗·路德 Paul Rudd
      凯伦·吉兰 Karen Gillan
      唐·钱德尔 Don Cheadle
      布丽·拉尔森 Brie Larson
      布莱德利·库珀 Bradley Cooper
      泰莎·汤普森 Tessa Thompson
      汤姆·赫兰德 Tom Holland
      伊丽莎白·奥尔森 Elizabeth Olsen
      本尼迪克特·康伯巴奇 Benedict Cumberbatch
      蒂尔达·斯文顿 Tilda Swinton
      格温妮斯·帕特洛 Gwyneth Paltrow
      蕾妮·罗素 Rene Russo
      约翰·斯拉特里 John Slattery
      查德维克·博斯曼 Chadwick Boseman
      安东尼·麦凯 Anthony Mackie
      塞巴斯蒂安·斯坦 Sebastian Stan
      克里斯·帕拉特 Chris Pratt
      汤姆·希德勒斯顿 Tom Hiddleston
      佐伊·索尔达娜 Zoe Saldana
      丹娜·奎里拉 Danai Gurira
      本尼迪克特·王 Benedict Wong
      庞·克莱门捷夫 Pom Klementieff
      戴夫·巴蒂斯塔 Dave Bautista
      利蒂希娅·赖特 Letitia Wright
      伊万杰琳·莉莉 Evangeline Lilly
      乔恩·费儒 Jon Favreau
      海莉·阿特维尔 Hayley Atwell
      娜塔莉·波特曼 Natalie Portman
      玛丽莎·托梅 Marisa Tomei
      塔伊加·维迪提 Taika Waititi
      安吉拉·贝塞特 Angela Bassett
      迈克尔·道格拉斯 Michael Douglas
      米歇尔·菲佛 Michelle Pfeiffer
      威廉·赫特 William Hurt
      寇碧·史莫德斯 Cobie Smulders
      肖恩·古恩 Sean Gunn
      温斯顿·杜克 Winston Duke
      琳达·卡德里尼 Linda Cardellini
      马克斯米利亚诺·赫尔南德斯 Maximiliano Hernández
      弗兰克·格里罗 Frank Grillo
      真田广之 Hiroyuki Sanada
      汤姆-沃恩-劳勒 Tom Vaughan-Lawlor
      詹姆斯·达西 James D'Arcy
      雅各布·巴特朗 Jacob Batalon
      范·迪塞尔 Vin Diesel
      罗伯特·雷德福 Robert Redford
      乔什·布洛林 Josh Brolin
      塞缪尔·杰克逊 Samuel L. Jackson
      伊薇特·尼科尔·布朗 Yvette Nicole Brown
      卡梅伦·布鲁姆布罗 Cameron Brumbelow
      蒂莫西·卡尔 Timothy Carr
      凯瑞·康顿 Kerry Condon
      迈克尔·A·库克 Michael A. Cook
      凯莉·库恩 Carrie Coon
      艾玛·福尔曼 Emma Fuhrmann
      雷纳·加拉赫 Renah Gallagher
      丹妮拉·加斯基 Daniela Gaskie
      郑肯 Ken Jeong
      小弗洛伊德·安东尼·约翰 Floyd Anthony Johns Jr.
      斯坦·李 Stan Lee
      罗斯·马昆德 Ross Marquand
      布伦特·麦吉 Brent McGee
      迈克尔·皮耶里诺·米勒 Michael Pierino Miller
      卡兰·马尔韦 Callan Mulvey
      泰瑞·诺塔里 Terry Notary
      吉米·雷·皮肯斯 Jimmy Ray Pickens
      迈克尔·詹姆斯·肖 Michael James Shaw
      泰·辛普金斯 Ty Simpkins
      格雷格·蒂芬 Greg Tiffan


标  签 漫威 | 超级豪杰 | 科幻 | 美国 | 2019 | 情怀 | 行动 | 漫画改编

简  介

  一声响指,宇宙间对折生命灰飞烟灭。几近失望的复仇者们在惊奇队长(布丽·拉尔森 Brie Larson 饰)的帮助下找到灭霸(乔什·布洛林 Josh Brolin 饰)归隐之处,却得知六颗无穷宝石均被烧毁,希望完全幻灭。如是过了五年,丢失在量子范畴的蚁人(保罗·路德 Paul Rudd 饰)意外回到现实天下,他的出现为幸存的复仇者们扑灭了希望。与美国队长(克里斯·埃文斯 Chris Evans 饰)冰释前嫌的托尼(小罗伯特·唐尼 Robert Downey Jr. 饰)找到了穿越时空的方式,分离各地的超级豪杰再度集结,他们别离穿越分歧的时代去汇集无穷宝石。而在这一进程中,平行宇宙的灭霸发觉了他们的计划。
必定要载入史册的终极决战,超级豪杰们为了心中固守的信心前仆后继……

获奖情况

  第28届MTV电影奖(2019)
  MTV电影奖 年度电影
  MTV电影奖 最好打架(提名) 乔什·布洛林 / 克里斯·埃文斯
  MTV电影奖 最好反派 乔什·布洛林
  MTV电影奖 最好豪杰形象 小罗伯特·唐尼

  第5届豆瓣电影年度榜单(2018)
  最值得期待的外语电影



  1. Video
  2. ID : 1
  3. Format : HEVC
  4. Format/Info : High Efficiency Video Coding
  5. Format profile : Main <a href="https://www.hdchina.net/cdn-cgi/l/email-protection" class="__cf_email__" data-cfemail="d8e9e89894edf6e9">[email protected]</a>@High
  6. HDR format : SMPTE ST 2086, HDR10 compatible
  7. Codec ID : V_MPEGH/ISO/HEVC
  8. Duration : 3 h 1 min
  9. Bit rate : 36.0 Mb/s
  10. Width : 3 840 pixels
  11. Height : 2 160 pixels
  12. Display aspect ratio : 16:9
  13. Frame rate mode : Constant
  14. Frame rate : 23.976 (24000/1001) FPS
  15. Color space : YUV
  16. Chroma subsampling : 4:2:0 (Type 2)
  17. Bit depth : 10 bits
  18. Bits/(Pixel*Frame) : 0.181
  19. Stream size : 45.6 GiB (74%)
  20. Title : Avengers.Endgame.2019.2160p.BluRay.REMUX.HEVC.DTS-HD.MA.TrueHD.7.1.Atmos-FGT
  21. Writing library : ATEME Titan File 3.9.0 (4.9.0.0)
  22. Language : English
  23. Default : No
  24. Forced : No
  25. Color range : Limited
  26. Color primaries : BT.2020
  27. Transfer characteristics : PQ
  28. Matrix coefficients : BT.2020 non-constant
  29. Mastering display color primaries : Display P3
  30. Mastering display luminance : min: 0.0050 cd/m2, max: 4000 cd/m2

  31. Audio #1
  32. ID : 2
  33. Format : MLP FBA 16-ch
  34. Format/Info : Meridian Lossless Packing FBA with 16-channel presentation
  35. Commercial name : Dolby TrueHD with Dolby Atmos
  36. Codec ID : A_TRUEHD
  37. Duration : 3 h 1 min
  38. Bit rate mode : Variable
  39. Bit rate : 4 777 kb/s
  40. Maximum bit rate : 8 430 kb/s
  41. Channel(s) : 8 channels
  42. Channel layout : L R C LFE Ls Rs Lb Rb
  43. Sampling rate : 48.0 kHz
  44. Frame rate : 1 200.000 FPS (40 SPF)
  45. Compression mode : Lossless
  46. Stream size : 6.05 GiB (10%)
  47. Title : Avengers.Endgame.2019.2160p.BluRay.REMUX.HEVC.DTS-HD.MA.TrueHD.7.1.Atmos-FGT
  48. Language : English
  49. Default : Yes
  50. Forced : No
  51. Number of dynamic objects : 13
  52. Bed channel count : 1 channel
  53. Bed channel configuration : LFE

  54. Audio #2
  55. ID : 3
  56. Format : DTS XLL
  57. Format/Info : Digital Theater Systems
  58. Commercial name : DTS-HD Master Audio
  59. Codec ID : A_DTS
  60. Duration : 3 h 1 min
  61. Bit rate mode : Variable
  62. Bit rate : 4 416 kb/s
  63. Channel(s) : 8 channels
  64. Channel layout : C L R LFE Lb Rb Lss Rss
  65. Sampling rate : 48.0 kHz
  66. Frame rate : 93.750 FPS (512 SPF)
  67. Bit depth : 24 bits
  68. Compression mode : Lossless
  69. Stream size : 5.59 GiB (9%)
  70. Title : Avengers.Endgame.2019.2160p.BluRay.REMUX.HEVC.DTS-HD.MA.TrueHD.7.1.Atmos-FGT
  71. Language : English
  72. Default : No
  73. Forced : No

  74. Audio #3
  75. ID : 4
  76. Format : AC-3
  77. Format/Info : Audio Coding 3
  78. Commercial name : Dolby Digital
  79. Codec ID : A_AC3
  80. Duration : 3 h 1 min
  81. Bit rate mode : Constant
  82. Bit rate : 640 kb/s
  83. Channel(s) : 6 channels
  84. Channel layout : L R C LFE Ls Rs
  85. Sampling rate : 48.0 kHz
  86. Frame rate : 31.250 FPS (1536 SPF)
  87. Bit depth : 16 bits
  88. Compression mode : Lossy
  89. Stream size : 829 MiB (1%)
  90. Title : Avengers.Endgame.2019.2160p.BluRay.REMUX.HEVC.DTS-HD.MA.TrueHD.7.1.Atmos-FGT
  91. Language : English
  92. Service kind : Complete Main
  93. Default : No
  94. Forced : No

  95. Audio #4
  96. ID : 5
  97. Format : AC-3
  98. Format/Info : Audio Coding 3
  99. Commercial name : Dolby Digital
  100. Codec ID : A_AC3
  101. Duration : 3 h 1 min
  102. Bit rate mode : Constant
  103. Bit rate : 320 kb/s
  104. Channel(s) : 2 channels
  105. Channel layout : L R
  106. Sampling rate : 48.0 kHz
  107. Frame rate : 31.250 FPS (1536 SPF)
  108. Bit depth : 16 bits
  109. Compression mode : Lossy
  110. Stream size : 415 MiB (1%)
  111. Title : Avengers.Endgame.2019.2160p.BluRay.REMUX.HEVC.DTS-HD.MA.TrueHD.7.1.Atmos-FGT
  112. Language : English
  113. Service kind : Complete Main
  114. Default : No
  115. Forced : No

  116. Audio #5
  117. ID : 6
  118. Format : AC-3
  119. Format/Info : Audio Coding 3
  120. Commercial name : Dolby Digital
  121. Codec ID : A_AC3
  122. Duration : 3 h 1 min
  123. Bit rate mode : Constant
  124. Bit rate : 640 kb/s
  125. Channel(s) : 6 channels
  126. Channel layout : L R C LFE Ls Rs
  127. Sampling rate : 48.0 kHz
  128. Frame rate : 31.250 FPS (1536 SPF)
  129. Bit depth : 16 bits
  130. Compression mode : Lossy
  131. Stream size : 829 MiB (1%)
  132. Title : Avengers.Endgame.2019.2160p.BluRay.REMUX.HEVC.DTS-HD.MA.TrueHD.7.1.Atmos-FGT
  133. Language : French
  134. Service kind : Complete Main
  135. Default : No
  136. Forced : No

  137. Audio #6
  138. ID : 7
  139. Format : E-AC-3
  140. Format/Info : Enhanced AC-3
  141. Commercial name : Dolby Digital Plus
  142. Format profile : Blu-ray Disc
  143. Codec ID : A_EAC3
  144. Duration : 3 h 1 min
  145. Bit rate mode : Constant
  146. Bit rate : 1 024 kb/s
  147. Channel(s) : 8 channels
  148. Channel layout : L R C LFE Ls Rs Lb Rb
  149. Sampling rate : 48.0 kHz
  150. Frame rate : 31.250 FPS (1536 SPF)
  151. Compression mode : Lossy
  152. Stream size : 1.30 GiB (2%)
  153. Title : Avengers.Endgame.2019.2160p.BluRay.REMUX.HEVC.DTS-HD.MA.TrueHD.7.1.Atmos-FGT
  154. Language : Spanish
  155. Service kind : Complete Main
  156. Default : No
  157. Forced : No

  158. Audio #7
  159. ID : 8
  160. Format : AC-3
  161. Format/Info : Audio Coding 3
  162. Commercial name : Dolby Digital
  163. Codec ID : A_AC3
  164. Duration : 3 h 1 min
  165. Bit rate mode : Constant
  166. Bit rate : 576 kb/s
  167. Channel(s) : 6 channels
  168. Channel layout : L R C LFE Ls Rs
  169. Sampling rate : 48.0 kHz
  170. Frame rate : 31.250 FPS (1536 SPF)
  171. Bit depth : 16 bits
  172. Compression mode : Lossy
  173. Stream size : 746 MiB (1%)
  174. Title : Avengers.Endgame.2019.2160p.BluRay.REMUX.HEVC.DTS-HD.MA.TrueHD.7.1.Atmos-FGT
  175. Language : Spanish
  176. Service kind : Complete Main
  177. Default : No
  178. Forced : No

  179. Text #1
  180. ID : 9
  181. Format : UTF-8
  182. Codec ID : S_TEXT/UTF8
  183. Codec ID/Info : UTF-8 Plain Text
  184. Duration : 2 h 47 min
  185. Bit rate : 49 b/s
  186. Count of elements : 2329
  187. Stream size : 61.1 KiB (0%)
  188. Title : English-SRT
  189. Language : English
  190. Default : Yes
  191. Forced : No

  192. Text #2
  193. ID : 10
  194. Format : UTF-8
  195. Codec ID : S_TEXT/UTF8
  196. Codec ID/Info : UTF-8 Plain Text
  197. Duration : 3 h 0 min
  198. Bit rate : 51 b/s
  199. Count of elements : 2630
  200. Stream size : 68.3 KiB (0%)
  201. Title : English-SDH-SRT
  202. Language : English
  203. Default : No
  204. Forced : No

  205. Text #3
  206. ID : 11
  207. Format : PGS
  208. Muxing mode : zlib
  209. Codec ID : S_HDMV/PGS
  210. Codec ID/Info : Picture based subtitle format used on BDs/HD-DVDs
  211. Duration : 3 h 0 min
  212. Bit rate : 33.7 kb/s
  213. Count of elements : 5266
  214. Stream size : 43.6 MiB (0%)
  215. Title : English-PGS
  216. Language : English
  217. Default : No
  218. Forced : No

  219. Text #4
  220. ID : 12
  221. Format : PGS
  222. Muxing mode : zlib
  223. Codec ID : S_HDMV/PGS
  224. Codec ID/Info : Picture based subtitle format used on BDs/HD-DVDs
  225. Duration : 2 h 52 min
  226. Bit rate : 28.5 kb/s
  227. Count of elements : 4446
  228. Stream size : 35.1 MiB (0%)
  229. Title : French-PGS
  230. Language : French
  231. Default : No
  232. Forced : No

  233. Text #5
  234. ID : 13
  235. Format : PGS
  236. Muxing mode : zlib
  237. Codec ID : S_HDMV/PGS
  238. Codec ID/Info : Picture based subtitle format used on BDs/HD-DVDs
  239. Duration : 2 h 47 min
  240. Bit rate : 31.0 kb/s
  241. Count of elements : 4394
  242. Stream size : 37.3 MiB (0%)
  243. Title : Spanish-PGS
  244. Language : Spanish
  245. Default : No
  246. Forced : No

  247. Text #6
  248. ID : 14
  249. Format : PGS
  250. Muxing mode : zlib
  251. Codec ID : S_HDMV/PGS
  252. Codec ID/Info : Picture based subtitle format used on BDs/HD-DVDs
  253. Duration : 2 h 37 min
  254. Bit rate : 645 b/s
  255. Count of elements : 98
  256. Stream size : 744 KiB (0%)
  257. Title : French-FORCED-PGS
  258. Language : French
  259. Default : No
  260. Forced : No

  261. Text #7
  262. ID : 15
  263. Format : PGS
  264. Muxing mode : zlib
  265. Codec ID : S_HDMV/PGS
  266. Codec ID/Info : Picture based subtitle format used on BDs/HD-DVDs
  267. Duration : 2 h 17 min
  268. Bit rate : 509 b/s
  269. Count of elements : 60
  270. Stream size : 513 KiB (0%)
  271. Title : Spanish-FORCED-PGS
  272. Language : Spanish
  273. Default : No
  274. Forced : No

  275. Menu
  276. 00:00:00.000 : en:Chapter 01
  277. 00:08:05.776 : en:Chapter 02
  278. 00:20:01.867 : en:Chapter 03
  279. 00:26:15.448 : en:Chapter 04
  280. 00:36:57.340 : en:Chapter 05
  281. 00:43:20.764 : en:Chapter 06
  282. 00:48:44.254 : en:Chapter 07
  283. 00:57:36.911 : en:Chapter 08
  284. 01:07:12.778 : en:Chapter 09
  285. 01:16:02.683 : en:Chapter 10
  286. 01:26:25.471 : en:Chapter 11
  287. 01:32:20.284 : en:Chapter 12
  288. 01:38:55.846 : en:Chapter 13
  289. 01:48:12.402 : en:Chapter 14
  290. 01:57:27.081 : en:Chapter 15
  291. 02:05:00.242 : en:Chapter 16
  292. 02:15:06.473 : en:Chapter 17
  293. 02:25:50.616 : en:Chapter 18
  294. 02:34:38.102 : en:Chapter 19
  295. 02:43:04.065 : en:Chapter 20
  296. 02:49:05.385 : en:Chapter 21
复制代码

复仇者同盟4:终局之战  Avengers.Endgame.2019.2160p.BluRay.REMUX.HEVC.DTS-HD.MA.TrueHD.7.1.Atmos-FGT 61.38GB-2.png 复仇者同盟4:终局之战  Avengers.Endgame.2019.2160p.BluRay.REMUX.HEVC.DTS-HD.MA.TrueHD.7.1.Atmos-FGT 61.38GB-3.png 复仇者同盟4:终局之战  Avengers.Endgame.2019.2160p.BluRay.REMUX.HEVC.DTS-HD.MA.TrueHD.7.1.Atmos-FGT 61.38GB-4.png







本帖隐藏的下载地址需要VIP会员才可阅读,您需要升级才可阅读,点击这里升级VIP

回复

使用道具 举报

 成长值: 2260

级别:尊贵的会员

注册时间
2019-1-20
最后登录
2019-8-24
听众
14
收听
0
主题
0
蓝光币
174 枚
贡献
0 点
发表于 2019-8-3 10:45:07 | 显示全部楼层
谢谢,不过这个种子好像放错了,和前面复仇者联盟4:终局之战 Avengers.Endgame.2019.2160p.BluRay.HEVC.TrueHD.7.1.Atmos-CHD 59.95GB这个一样。
回复

使用道具 举报

 成长值: 2270

级别:资源管理组

注册时间
2017-10-20
最后登录
2019-8-23
听众
1
收听
0
主题
81029
蓝光币
43234 枚
贡献
5356 点
 楼主| 发表于 2019-8-3 14:41:51 | 显示全部楼层
wujian0317 发表于 2019-8-3 10:45
谢谢,不过这个种子好像放错了,和前面复仇者联盟4:终局之战 Avengers.Endgame.2019.2160p.BluRay.HEVC.Tr ...

感谢您的反馈,已经纠正!
回复

使用道具 举报

 成长值: 1300

级别:尊贵的会员

注册时间
2019-5-3
最后登录
2019-8-16
听众
11
收听
0
主题
0
蓝光币
387 枚
贡献
0 点
发表于 2019-8-3 17:43:57 | 显示全部楼层
为什么这个版本色彩泛白?
回复

使用道具 举报

级别:初级观众 Lv.1

注册时间
2019-1-22
最后登录
2019-8-18
听众
9
收听
0
主题
0
蓝光币
13 枚
贡献
0 点
发表于 2019-8-3 21:57:41 | 显示全部楼层

这东西我收了!谢谢楼主!中国高清电影网真好!
回复

使用道具 举报

级别:荣升主角 Lv.5

注册时间
2019-4-24
最后登录
2019-8-23
听众
13
收听
0
主题
0
蓝光币
87 枚
贡献
0 点
发表于 2019-8-3 22:45:06 | 显示全部楼层
谢谢楼主分享!
回复

使用道具 举报

级别:群众演员 Lv.3

注册时间
2019-3-30
最后登录
2019-8-23
听众
14
收听
0
主题
0
蓝光币
199 枚
贡献
0 点
发表于 2019-8-8 21:53:54 | 显示全部楼层
REMUX体积不小啊
回复

使用道具 举报

级别:初级观众 Lv.1

注册时间
2019-8-9
最后登录
2019-8-11
听众
1
收听
0
主题
0
蓝光币
7 枚
贡献
0 点
发表于 2019-8-9 14:50:14 | 显示全部楼层
楼主发贴辛苦了,谢谢楼主分享!我觉得中国高清电影网是注册对了!
回复

使用道具 举报

 成长值: 180

级别:尊贵的会员

注册时间
2019-6-12
最后登录
2019-8-24
听众
9
收听
0
主题
0
蓝光币
137 枚
贡献
0 点
发表于 2019-8-11 16:46:50 | 显示全部楼层
此版本00:16:14花屏。
回复

使用道具 举报

级别:专业龙套 Lv.4

注册时间
2018-11-26
最后登录
2019-8-18
听众
12
收听
0
主题
0
蓝光币
522 枚
贡献
0 点
发表于 2019-8-16 23:48:54 | 显示全部楼层
贡献了好几十块大洋去看
回复

使用道具 举报

懒得打字嘛,点击右侧快捷回复 【右侧内容,后台自定义】
您需要登录后才可以回帖 登录 | 立即注册

本版积分规则

QQ|Archiver|手机版|小黑屋| 中国高清网 |网站地图

GMT+8, 2019-8-24 12:56 , Processed in 0.738170 second(s), 40 queries .

Powered by HDchina X3.4

Copyright 2017-2019©HDchina.All right reserved

返回顶部 联系我们