查看: 944|回复: 4

[REMUX.HEVC] 阿丽塔:战斗天使/艾莉塔:战斗天使 Alita.Battle.Angel.2019.2160p.BluRay.REMUX.HEVC.DTS-HD.MA.TrueHD.7.1.Atmos-FGT 53.30GB

[复制链接]

 成长值: 7315

级别:资源管理组

注册时间
2017-10-20
最后登录
2020-9-29
听众
1
收听
0
主题
103319
蓝光币
199189 枚
贡献
21715 点
发表于 2019-7-21 16:39:56 | 显示全部楼层 |阅读模式
阿丽塔:战役天使/艾莉塔:战役天使 Alita.Battle.Angel.2019.2160p.BluRay.REMUX.HEVC.DTS-HD.MA.TrueHD.7.1.Atmos-FGT 53.30GB-1.png

译  名 阿丽塔:战役天使 / 艾莉塔:战役天使(台) / 铳梦 / 铳梦:战役天使(港)
片  名 Alita: Battle Angel
年  代 2019
产  地 美国 / 加拿大 / 阿根廷
类  别 行动 / 科幻 / 冒险
语  言 英语 / 西班牙语
上映日期 2019-02-05(台湾) / 2019-02-14(美国) / 2019-02-22(中国大陆)
IMDb评分  7.5/10 from 102771 users
IMDb链接  http://www.imdb.com/title/tt0437086
豆瓣评分 7.6/10 from 343930 users
豆瓣链接 https://movie.douban.com/subject/1652592/
片  长 122分钟
导  演 罗伯特·罗德里格兹 Robert Rodriguez
编  剧 詹姆斯·卡梅隆 James Cameron / 莱塔·卡罗格里迪斯 Laeta Kalogridis / 木城幸人 Yukito Kishiro
主  演 罗莎·萨拉查 Rosa Salazar
      克里斯托弗·沃尔兹 Christoph Waltz
      基恩·约翰逊 Keean Johnson
      艾德·斯克林 Ed Skrein
      马赫沙拉·阿里 Mahershala Ali
      詹妮弗·康纳利 Jennifer Connelly
      杰基·厄尔·哈利 Jackie Earle Haley
      陈东兰 Lana Condor
      小豪尔赫·兰登伯格 Jorge Lendeborg Jr.
      艾莎·冈萨雷斯 Eiza González
      卡斯帕·凡·迪恩 Casper Van Dien
      米歇尔·罗德里格兹 Michelle Rodriguez
      爱德华·诺顿 Edward Norton
      杰夫·法赫 Jeff Fahey
      山姆·麦地那 Sam Medina
      德里克·梅耶斯 Derek Mears
      艾丽·拉蒙特 Elle LaMont
      豪尔赫·A·希门尼斯 Jorge A. Jimenez
      马克·扎罗 Marko Zaror
      比利·布莱尔 Billy Blair
      伦纳德·吴 Leonard Wu
      特里斯坦·里格斯 Tristan Riggs
      迈克尔·洛夫·托利弗 Michael Love Toliver
      金 King
      达塞尔·丹妮尔 Darcel Danielle
      Mark A. White


标  签 科幻 | 机械人 | 行动 | 漫画改编 | 美国 | 赛博朋克 | 2019 | 动画

简  介  

  故事发生在悠远的26世纪,外科医生依德(克里斯托弗·瓦尔兹 Christoph Waltz 饰)在渣滓场里捡到了只剩下头部的机械少女将她带回家中,给她装上了原本为自己已故的女儿所预备的义体,并取名阿丽塔(罗莎·萨拉扎尔 Rosa Salazar 饰)。苏醒后的阿丽塔对这个五彩斑斓但却暴力而又残暴的天下发生了稠密的爱好,在结识了青年雨果(基恩·约翰逊 Keean Johnson 饰)后,阿丽塔起头打仗名为灵活球的活动,并在角逐中展现出了惊人的肉搏天赋。
在废铁城居民们的头顶,漂泊着庞大的浮空城市撒冷,废铁城居民们的一切劳作和支出,都是为了给撒冷供给继续运作的燃料。在大财阀维克特(马赫沙拉·阿里 Mahershala Ali 饰)所设立的灵活球角逐中,终极获得冠军的人可以获得前往撒冷生活的资历,阿丽塔决议操纵自己的肉搏天赋加入角逐,却被卷入了一个庞大的诡计当中。

获奖情况  

  第5届豆瓣电影年度榜单(2018)
  最值得期待的外语电影(提名)

  第4届豆瓣电影年度榜单(2017)
  最值得期待的外语电影(提名)



  1. Video #1
  2. ID                                       : 1
  3. Format                                   : HEVC
  4. Format/Info                              : High Efficiency Video Coding
  5. Format profile                           : Main <a href="/cdn-cgi/l/email-protection" class="__cf_email__" data-cfemail="0435344448312a35">[email protected]</a>@High
  6. HDR format                               : SMPTE ST 2094 App 4, Version 1, HDR10+ Profile A compatible
  7. Codec ID                                 : V_MPEGH/ISO/HEVC
  8. Duration                                 : 2 h 1 min
  9. Bit rate                                 : 41.4 Mb/s
  10. Width                                    : 3 840 pixels
  11. Height                                   : 2 160 pixels
  12. Display aspect ratio                     : 16:9
  13. Frame rate mode                          : Constant
  14. Frame rate                               : 23.976 (24000/1001) FPS
  15. Color space                              : YUV
  16. Chroma subsampling                       : 4:2:0 (Type 2)
  17. Bit depth                                : 10 bits
  18. Bits/(Pixel*Frame)                       : 0.208
  19. Stream size                              : 35.2 GiB (66%)
  20. Title                                    : Alita.Battle.Angel.2019.2160p.BluRay.REMUX.HEVC.DTS-HD.MA.TrueHD.7.1.Atmos-FGT
  21. Language                                 : English
  22. Default                                  : Yes
  23. Forced                                   : No
  24. Color range                              : Limited
  25. Color primaries                          : BT.2020
  26. Transfer characteristics                 : PQ
  27. Matrix coefficients                      : BT.2020 non-constant
  28. Mastering display color primaries        : Display P3
  29. Mastering display luminance              : min: 0.0001 cd/m2, max: 1000 cd/m2
  30. Maximum Content Light Level              : 233 cd/m2
  31. Maximum Frame-Average Light Level        : 63 cd/m2

  32. Video #2
  33. ID                                       : 2
  34. Format                                   : HEVC
  35. Format/Info                              : High Efficiency Video Coding
  36. Format profile                           : Main <a href="/cdn-cgi/l/email-protection" class="__cf_email__" data-cfemail="ae9f9eeee29b809f">[email protected]</a>@High
  37. HDR format                               : SMPTE ST 2086, HDR10 compatible
  38. Codec ID                                 : V_MPEGH/ISO/HEVC
  39. Duration                                 : 2 h 1 min
  40. Bit rate                                 : 2 133 kb/s
  41. Width                                    : 1 920 pixels
  42. Height                                   : 1 080 pixels
  43. Display aspect ratio                     : 16:9
  44. Frame rate mode                          : Constant
  45. Frame rate                               : 23.976 (24000/1001) FPS
  46. Color space                              : YUV
  47. Chroma subsampling                       : 4:2:0 (Type 2)
  48. Bit depth                                : 10 bits
  49. Bits/(Pixel*Frame)                       : 0.043
  50. Stream size                              : 1.82 GiB (3%)
  51. Title                                    : Alita.Battle.Angel.2019.2160p.BluRay.REMUX.HEVC.DTS-HD.MA.TrueHD.7.1.Atmos-FGT
  52. Language                                 : English
  53. Default                                  : No
  54. Forced                                   : No
  55. Color range                              : Limited
  56. Color primaries                          : BT.2020
  57. Transfer characteristics                 : PQ
  58. Matrix coefficients                      : BT.2020 non-constant
  59. Mastering display color primaries        : Display P3
  60. Mastering display luminance              : min: 0.0001 cd/m2, max: 1000 cd/m2

  61. Audio #1
  62. ID                                       : 3
  63. Format                                   : MLP FBA 16-ch
  64. Format/Info                              : Meridian Lossless Packing FBA with 16-channel presentation
  65. Commercial name                          : Dolby TrueHD with Dolby Atmos
  66. Codec ID                                 : A_TRUEHD
  67. Duration                                 : 2 h 1 min
  68. Bit rate mode                            : Variable
  69. Bit rate                                 : 5 013 kb/s
  70. Channel(s)                               : 8 channels
  71. Channel layout                           : L R C LFE Ls Rs Lb Rb
  72. Sampling rate                            : 48.0 kHz
  73. Frame rate                               : 1 200.000 FPS (40 SPF)
  74. Compression mode                         : Lossless
  75. Stream size                              : 4.30 GiB (8%)
  76. Title                                    : Alita.Battle.Angel.2019.2160p.BluRay.REMUX.HEVC.DTS-HD.MA.TrueHD.7.1.Atmos-FGT
  77. Language                                 : English
  78. Default                                  : Yes
  79. Forced                                   : No
  80. Number of dynamic objects                : 13
  81. Bed channel count                        : 1 channel
  82. Bed channel configuration                : LFE

  83. Audio #2
  84. ID                                       : 4
  85. Format                                   : DTS XLL
  86. Format/Info                              : Digital Theater Systems
  87. Commercial name                          : DTS-HD Master Audio
  88. Codec ID                                 : A_DTS
  89. Duration                                 : 2 h 1 min
  90. Bit rate mode                            : Variable
  91. Bit rate                                 : 4 104 kb/s
  92. Channel(s)                               : 8 channels
  93. Channel layout                           : C L R LFE Lb Rb Lss Rss
  94. Sampling rate                            : 48.0 kHz
  95. Frame rate                               : 93.750 FPS (512 SPF)
  96. Bit depth                                : 24 bits
  97. Compression mode                         : Lossless
  98. Stream size                              : 3.50 GiB (7%)
  99. Title                                    : Alita.Battle.Angel.2019.2160p.BluRay.REMUX.HEVC.DTS-HD.MA.TrueHD.7.1.Atmos-FGT
  100. Language                                 : English
  101. Default                                  : No
  102. Forced                                   : No

  103. Audio #3
  104. ID                                       : 5
  105. Format                                   : AC-3
  106. Format/Info                              : Audio Coding 3
  107. Commercial name                          : Dolby Digital
  108. Codec ID                                 : A_AC3
  109. Duration                                 : 2 h 1 min
  110. Bit rate mode                            : Constant
  111. Bit rate                                 : 640 kb/s
  112. Channel(s)                               : 6 channels
  113. Channel layout                           : L R C LFE Ls Rs
  114. Sampling rate                            : 48.0 kHz
  115. Frame rate                               : 31.250 FPS (1536 SPF)
  116. Bit depth                                : 16 bits
  117. Compression mode                         : Lossy
  118. Stream size                              : 558 MiB (1%)
  119. Title                                    : Alita.Battle.Angel.2019.2160p.BluRay.REMUX.HEVC.DTS-HD.MA.TrueHD.7.1.Atmos-FGT
  120. Language                                 : English
  121. Service kind                             : Complete Main
  122. Default                                  : No
  123. Forced                                   : No

  124. Audio #4
  125. ID                                       : 6
  126. Format                                   : DTS XLL
  127. Format/Info                              : Digital Theater Systems
  128. Commercial name                          : DTS-HD Master Audio
  129. Codec ID                                 : A_DTS
  130. Duration                                 : 2 h 1 min
  131. Bit rate mode                            : Variable
  132. Bit rate                                 : 2 058 kb/s
  133. Channel(s)                               : 2 channels
  134. Channel layout                           : L R
  135. Sampling rate                            : 48.0 kHz
  136. Frame rate                               : 93.750 FPS (512 SPF)
  137. Bit depth                                : 24 bits
  138. Compression mode                         : Lossless
  139. Stream size                              : 1.75 GiB (3%)
  140. Title                                    : Alita.Battle.Angel.2019.2160p.BluRay.REMUX.HEVC.DTS-HD.MA.TrueHD.7.1.Atmos-FGT
  141. Language                                 : English
  142. Default                                  : No
  143. Forced                                   : No

  144. Audio #5
  145. ID                                       : 7
  146. Format                                   : AC-3
  147. Format/Info                              : Audio Coding 3
  148. Commercial name                          : Dolby Digital
  149. Codec ID                                 : A_AC3
  150. Duration                                 : 2 h 1 min
  151. Bit rate mode                            : Constant
  152. Bit rate                                 : 448 kb/s
  153. Channel(s)                               : 6 channels
  154. Channel layout                           : L R C LFE Ls Rs
  155. Sampling rate                            : 48.0 kHz
  156. Frame rate                               : 31.250 FPS (1536 SPF)
  157. Bit depth                                : 16 bits
  158. Compression mode                         : Lossy
  159. Stream size                              : 391 MiB (1%)
  160. Title                                    : Alita.Battle.Angel.2019.2160p.BluRay.REMUX.HEVC.DTS-HD.MA.TrueHD.7.1.Atmos-FGT
  161. Language                                 : English
  162. Service kind                             : Complete Main
  163. Default                                  : No
  164. Forced                                   : No

  165. Audio #6
  166. ID                                       : 8
  167. Format                                   : AC-3
  168. Format/Info                              : Audio Coding 3
  169. Commercial name                          : Dolby Digital
  170. Codec ID                                 : A_AC3
  171. Duration                                 : 2 h 1 min
  172. Bit rate mode                            : Constant
  173. Bit rate                                 : 448 kb/s
  174. Channel(s)                               : 6 channels
  175. Channel layout                           : L R C LFE Ls Rs
  176. Sampling rate                            : 48.0 kHz
  177. Frame rate                               : 31.250 FPS (1536 SPF)
  178. Bit depth                                : 16 bits
  179. Compression mode                         : Lossy
  180. Stream size                              : 391 MiB (1%)
  181. Title                                    : Alita.Battle.Angel.2019.2160p.BluRay.REMUX.HEVC.DTS-HD.MA.TrueHD.7.1.Atmos-FGT
  182. Language                                 : Spanish
  183. Service kind                             : Complete Main
  184. Default                                  : No
  185. Forced                                   : No

  186. Audio #7
  187. ID                                       : 9
  188. Format                                   : DTS
  189. Format/Info                              : Digital Theater Systems
  190. Codec ID                                 : A_DTS
  191. Duration                                 : 2 h 1 min
  192. Bit rate mode                            : Constant
  193. Bit rate                                 : 768 kb/s
  194. Channel(s)                               : 6 channels
  195. Channel layout                           : C L R Ls Rs LFE
  196. Sampling rate                            : 48.0 kHz
  197. Frame rate                               : 93.750 FPS (512 SPF)
  198. Bit depth                                : 24 bits
  199. Compression mode                         : Lossy
  200. Stream size                              : 670 MiB (1%)
  201. Title                                    : Alita.Battle.Angel.2019.2160p.BluRay.REMUX.HEVC.DTS-HD.MA.TrueHD.7.1.Atmos-FGT
  202. Language                                 : French
  203. Default                                  : No
  204. Forced                                   : No

  205. Audio #8
  206. ID                                       : 10
  207. Format                                   : DTS
  208. Format/Info                              : Digital Theater Systems
  209. Codec ID                                 : A_DTS
  210. Duration                                 : 2 h 1 min
  211. Bit rate mode                            : Constant
  212. Bit rate                                 : 768 kb/s
  213. Channel(s)                               : 6 channels
  214. Channel layout                           : C L R Ls Rs LFE
  215. Sampling rate                            : 48.0 kHz
  216. Frame rate                               : 93.750 FPS (512 SPF)
  217. Bit depth                                : 24 bits
  218. Compression mode                         : Lossy
  219. Stream size                              : 670 MiB (1%)
  220. Title                                    : Alita.Battle.Angel.2019.2160p.BluRay.REMUX.HEVC.DTS-HD.MA.TrueHD.7.1.Atmos-FGT
  221. Language                                 : Spanish
  222. Default                                  : No
  223. Forced                                   : No

  224. Audio #9
  225. ID                                       : 11
  226. Format                                   : DTS
  227. Format/Info                              : Digital Theater Systems
  228. Codec ID                                 : A_DTS
  229. Duration                                 : 2 h 1 min
  230. Bit rate mode                            : Constant
  231. Bit rate                                 : 768 kb/s
  232. Channel(s)                               : 6 channels
  233. Channel layout                           : C L R Ls Rs LFE
  234. Sampling rate                            : 48.0 kHz
  235. Frame rate                               : 93.750 FPS (512 SPF)
  236. Bit depth                                : 24 bits
  237. Compression mode                         : Lossy
  238. Stream size                              : 670 MiB (1%)
  239. Title                                    : Alita.Battle.Angel.2019.2160p.BluRay.REMUX.HEVC.DTS-HD.MA.TrueHD.7.1.Atmos-FGT
  240. Language                                 : German
  241. Default                                  : No
  242. Forced                                   : No

  243. Audio #10
  244. ID                                       : 12
  245. Format                                   : DTS
  246. Format/Info                              : Digital Theater Systems
  247. Codec ID                                 : A_DTS
  248. Duration                                 : 2 h 1 min
  249. Bit rate mode                            : Constant
  250. Bit rate                                 : 768 kb/s
  251. Channel(s)                               : 6 channels
  252. Channel layout                           : C L R Ls Rs LFE
  253. Sampling rate                            : 48.0 kHz
  254. Frame rate                               : 93.750 FPS (512 SPF)
  255. Bit depth                                : 24 bits
  256. Compression mode                         : Lossy
  257. Stream size                              : 670 MiB (1%)
  258. Title                                    : Alita.Battle.Angel.2019.2160p.BluRay.REMUX.HEVC.DTS-HD.MA.TrueHD.7.1.Atmos-FGT
  259. Language                                 : Italian
  260. Default                                  : No
  261. Forced                                   : No

  262. Audio #11
  263. ID                                       : 13
  264. Format                                   : DTS
  265. Format/Info                              : Digital Theater Systems
  266. Codec ID                                 : A_DTS
  267. Duration                                 : 2 h 1 min
  268. Bit rate mode                            : Constant
  269. Bit rate                                 : 768 kb/s
  270. Channel(s)                               : 6 channels
  271. Channel layout                           : C L R Ls Rs LFE
  272. Sampling rate                            : 48.0 kHz
  273. Frame rate                               : 93.750 FPS (512 SPF)
  274. Bit depth                                : 24 bits
  275. Compression mode                         : Lossy
  276. Stream size                              : 670 MiB (1%)
  277. Title                                    : Alita.Battle.Angel.2019.2160p.BluRay.REMUX.HEVC.DTS-HD.MA.TrueHD.7.1.Atmos-FGT
  278. Language                                 : Russian
  279. Default                                  : No
  280. Forced                                   : No

  281. Audio #12
  282. ID                                       : 14
  283. Format                                   : AC-3
  284. Format/Info                              : Audio Coding 3
  285. Commercial name                          : Dolby Digital
  286. Codec ID                                 : A_AC3
  287. Duration                                 : 2 h 1 min
  288. Bit rate mode                            : Constant
  289. Bit rate                                 : 448 kb/s
  290. Channel(s)                               : 6 channels
  291. Channel layout                           : L R C LFE Ls Rs
  292. Sampling rate                            : 48.0 kHz
  293. Frame rate                               : 31.250 FPS (1536 SPF)
  294. Bit depth                                : 16 bits
  295. Compression mode                         : Lossy
  296. Stream size                              : 391 MiB (1%)
  297. Title                                    : Alita.Battle.Angel.2019.2160p.BluRay.REMUX.HEVC.DTS-HD.MA.TrueHD.7.1.Atmos-FGT
  298. Language                                 : Czech
  299. Service kind                             : Complete Main
  300. Default                                  : No
  301. Forced                                   : No

  302. Audio #13
  303. ID                                       : 15
  304. Format                                   : AC-3
  305. Format/Info                              : Audio Coding 3
  306. Commercial name                          : Dolby Digital
  307. Codec ID                                 : A_AC3
  308. Duration                                 : 2 h 1 min
  309. Bit rate mode                            : Constant
  310. Bit rate                                 : 448 kb/s
  311. Channel(s)                               : 6 channels
  312. Channel layout                           : L R C LFE Ls Rs
  313. Sampling rate                            : 48.0 kHz
  314. Frame rate                               : 31.250 FPS (1536 SPF)
  315. Bit depth                                : 16 bits
  316. Compression mode                         : Lossy
  317. Stream size                              : 391 MiB (1%)
  318. Title                                    : Alita.Battle.Angel.2019.2160p.BluRay.REMUX.HEVC.DTS-HD.MA.TrueHD.7.1.Atmos-FGT
  319. Language                                 : Hindi
  320. Service kind                             : Complete Main
  321. Default                                  : No
  322. Forced                                   : No

  323. Audio #14
  324. ID                                       : 16
  325. Format                                   : AC-3
  326. Format/Info                              : Audio Coding 3
  327. Commercial name                          : Dolby Digital
  328. Codec ID                                 : A_AC3
  329. Duration                                 : 2 h 1 min
  330. Bit rate mode                            : Constant
  331. Bit rate                                 : 448 kb/s
  332. Channel(s)                               : 6 channels
  333. Channel layout                           : L R C LFE Ls Rs
  334. Sampling rate                            : 48.0 kHz
  335. Frame rate                               : 31.250 FPS (1536 SPF)
  336. Bit depth                                : 16 bits
  337. Compression mode                         : Lossy
  338. Stream size                              : 391 MiB (1%)
  339. Title                                    : Alita.Battle.Angel.2019.2160p.BluRay.REMUX.HEVC.DTS-HD.MA.TrueHD.7.1.Atmos-FGT
  340. Language                                 : Hungarian
  341. Service kind                             : Complete Main
  342. Default                                  : No
  343. Forced                                   : No

  344. Audio #15
  345. ID                                       : 17
  346. Format                                   : AC-3
  347. Format/Info                              : Audio Coding 3
  348. Commercial name                          : Dolby Digital
  349. Codec ID                                 : A_AC3
  350. Duration                                 : 2 h 1 min
  351. Bit rate mode                            : Constant
  352. Bit rate                                 : 448 kb/s
  353. Channel(s)                               : 6 channels
  354. Channel layout                           : L R C LFE Ls Rs
  355. Sampling rate                            : 48.0 kHz
  356. Frame rate                               : 31.250 FPS (1536 SPF)
  357. Bit depth                                : 16 bits
  358. Compression mode                         : Lossy
  359. Stream size                              : 391 MiB (1%)
  360. Title                                    : Alita.Battle.Angel.2019.2160p.BluRay.REMUX.HEVC.DTS-HD.MA.TrueHD.7.1.Atmos-FGT
  361. Language                                 : Polish
  362. Service kind                             : Complete Main
  363. Default                                  : No
  364. Forced                                   : No

  365. Audio #16
  366. ID                                       : 18
  367. Format                                   : AC-3
  368. Format/Info                              : Audio Coding 3
  369. Commercial name                          : Dolby Digital
  370. Codec ID                                 : A_AC3
  371. Duration                                 : 2 h 1 min
  372. Bit rate mode                            : Constant
  373. Bit rate                                 : 448 kb/s
  374. Channel(s)                               : 6 channels
  375. Channel layout                           : L R C LFE Ls Rs
  376. Sampling rate                            : 48.0 kHz
  377. Frame rate                               : 31.250 FPS (1536 SPF)
  378. Bit depth                                : 16 bits
  379. Compression mode                         : Lossy
  380. Stream size                              : 391 MiB (1%)
  381. Title                                    : Alita.Battle.Angel.2019.2160p.BluRay.REMUX.HEVC.DTS-HD.MA.TrueHD.7.1.Atmos-FGT
  382. Language                                 : Thai
  383. Service kind                             : Complete Main
  384. Default                                  : No
  385. Forced                                   : No

  386. Text #1
  387. ID                                       : 19
  388. Format                                   : UTF-8
  389. Codec ID                                 : S_TEXT/UTF8
  390. Codec ID/Info                            : UTF-8 Plain Text
  391. Duration                                 : 1 h 55 min
  392. Bit rate                                 : 41 b/s
  393. Count of elements                        : 1347
  394. Stream size                              : 34.8 KiB (0%)
  395. Title                                    : English-SRT
  396. Language                                 : English
  397. Default                                  : Yes
  398. Forced                                   : No

  399. Text #2
  400. ID                                       : 20
  401. Format                                   : UTF-8
  402. Codec ID                                 : S_TEXT/UTF8
  403. Codec ID/Info                            : UTF-8 Plain Text
  404. Duration                                 : 1 h 55 min
  405. Bit rate                                 : 46 b/s
  406. Count of elements                        : 1588
  407. Stream size                              : 39.2 KiB (0%)
  408. Title                                    : English-SDH-SRT
  409. Language                                 : English
  410. Default                                  : No
  411. Forced                                   : No

  412. Text #3
  413. ID                                       : 21
  414. Format                                   : PGS
  415. Muxing mode                              : zlib
  416. Codec ID                                 : S_HDMV/PGS
  417. Codec ID/Info                            : Picture based subtitle format used on BDs/HD-DVDs
  418. Duration                                 : 1 h 58 min
  419. Bit rate                                 : 30.6 kb/s
  420. Count of elements                        : 3180
  421. Stream size                              : 26.0 MiB (0%)
  422. Title                                    : English-PGS
  423. Language                                 : English
  424. Default                                  : No
  425. Forced                                   : No

  426. Text #4
  427. ID                                       : 22
  428. Format                                   : PGS
  429. Muxing mode                              : zlib
  430. Codec ID                                 : S_HDMV/PGS
  431. Codec ID/Info                            : Picture based subtitle format used on BDs/HD-DVDs
  432. Duration                                 : 2 h 1 min
  433. Bit rate                                 : 23.5 kb/s
  434. Count of elements                        : 2476
  435. Stream size                              : 20.4 MiB (0%)
  436. Title                                    : Spanish-PGS
  437. Language                                 : Spanish
  438. Default                                  : No
  439. Forced                                   : No

  440. Text #5
  441. ID                                       : 23
  442. Format                                   : PGS
  443. Muxing mode                              : zlib
  444. Codec ID                                 : S_HDMV/PGS
  445. Codec ID/Info                            : Picture based subtitle format used on BDs/HD-DVDs
  446. Duration                                 : 2 h 1 min
  447. Bit rate                                 : 21.3 kb/s
  448. Count of elements                        : 2608
  449. Stream size                              : 18.5 MiB (0%)
  450. Title                                    : French-PGS
  451. Language                                 : French
  452. Default                                  : No
  453. Forced                                   : No

  454. Text #6
  455. ID                                       : 24
  456. Format                                   : PGS
  457. Muxing mode                              : zlib
  458. Codec ID                                 : S_HDMV/PGS
  459. Codec ID/Info                            : Picture based subtitle format used on BDs/HD-DVDs
  460. Duration                                 : 25 min 5 s
  461. Bit rate                                 : 187 b/s
  462. Count of elements                        : 4
  463. Stream size                              : 34.4 KiB (0%)
  464. Title                                    : French-FORCED-PGS
  465. Language                                 : French
  466. Default                                  : No
  467. Forced                                   : No

  468. Text #7
  469. ID                                       : 25
  470. Format                                   : PGS
  471. Muxing mode                              : zlib
  472. Codec ID                                 : S_HDMV/PGS
  473. Codec ID/Info                            : Picture based subtitle format used on BDs/HD-DVDs
  474. Duration                                 : 2 h 1 min
  475. Bit rate                                 : 23.2 kb/s
  476. Count of elements                        : 2500
  477. Stream size                              : 20.2 MiB (0%)
  478. Title                                    : Spanish-PGS
  479. Language                                 : Spanish
  480. Default                                  : No
  481. Forced                                   : No

  482. Text #8
  483. ID                                       : 26
  484. Format                                   : PGS
  485. Muxing mode                              : zlib
  486. Codec ID                                 : S_HDMV/PGS
  487. Codec ID/Info                            : Picture based subtitle format used on BDs/HD-DVDs
  488. Duration                                 : 1 h 50 min
  489. Bit rate                                 : 83 b/s
  490. Count of elements                        : 6
  491. Stream size                              : 67.7 KiB (0%)
  492. Title                                    : Spanish-FORCED-PGS
  493. Language                                 : Spanish
  494. Default                                  : No
  495. Forced                                   : No

  496. Text #9
  497. ID                                       : 27
  498. Format                                   : PGS
  499. Muxing mode                              : zlib
  500. Codec ID                                 : S_HDMV/PGS
  501. Codec ID/Info                            : Picture based subtitle format used on BDs/HD-DVDs
  502. Duration                                 : 2 h 1 min
  503. Bit rate                                 : 23.8 kb/s
  504. Count of elements                        : 1906
  505. Stream size                              : 20.6 MiB (0%)
  506. Title                                    : Danish-PGS
  507. Language                                 : Danish
  508. Default                                  : No
  509. Forced                                   : No

  510. Text #10
  511. ID                                       : 28
  512. Format                                   : PGS
  513. Muxing mode                              : zlib
  514. Codec ID                                 : S_HDMV/PGS
  515. Codec ID/Info                            : Picture based subtitle format used on BDs/HD-DVDs
  516. Duration                                 : 2 h 1 min
  517. Bit rate                                 : 21.9 kb/s
  518. Count of elements                        : 1956
  519. Stream size                              : 19.0 MiB (0%)
  520. Title                                    : Dutch-PGS
  521. Language                                 : Dutch
  522. Default                                  : No
  523. Forced                                   : No

  524. Text #11
  525. ID                                       : 29
  526. Format                                   : PGS
  527. Muxing mode                              : zlib
  528. Codec ID                                 : S_HDMV/PGS
  529. Codec ID/Info                            : Picture based subtitle format used on BDs/HD-DVDs
  530. Duration                                 : 2 h 1 min
  531. Bit rate                                 : 22.2 kb/s
  532. Count of elements                        : 2510
  533. Stream size                              : 19.3 MiB (0%)
  534. Title                                    : Finnish-PGS
  535. Language                                 : Finnish
  536. Default                                  : No
  537. Forced                                   : No

  538. Text #12
  539. ID                                       : 30
  540. Format                                   : PGS
  541. Muxing mode                              : zlib
  542. Codec ID                                 : S_HDMV/PGS
  543. Codec ID/Info                            : Picture based subtitle format used on BDs/HD-DVDs
  544. Duration                                 : 2 h 1 min
  545. Bit rate                                 : 24.7 kb/s
  546. Count of elements                        : 2488
  547. Stream size                              : 21.5 MiB (0%)
  548. Title                                    : German-PGS
  549. Language                                 : German
  550. Default                                  : No
  551. Forced                                   : No

  552. Text #13
  553. ID                                       : 31
  554. Format                                   : PGS
  555. Muxing mode                              : zlib
  556. Codec ID                                 : S_HDMV/PGS
  557. Codec ID/Info                            : Picture based subtitle format used on BDs/HD-DVDs
  558. Duration                                 : 2 h 1 min
  559. Bit rate                                 : 23.1 kb/s
  560. Count of elements                        : 2522
  561. Stream size                              : 20.0 MiB (0%)
  562. Title                                    : Italian-PGS
  563. Language                                 : Italian
  564. Default                                  : No
  565. Forced                                   : No

  566. Text #14
  567. ID                                       : 32
  568. Format                                   : PGS
  569. Muxing mode                              : zlib
  570. Codec ID                                 : S_HDMV/PGS
  571. Codec ID/Info                            : Picture based subtitle format used on BDs/HD-DVDs
  572. Duration                                 : 1 h 50 min
  573. Bit rate                                 : 163 b/s
  574. Count of elements                        : 10
  575. Stream size                              : 133 KiB (0%)
  576. Title                                    : Italian-FORCED-PGS
  577. Language                                 : Italian
  578. Default                                  : No
  579. Forced                                   : No

  580. Text #15
  581. ID                                       : 33
  582. Format                                   : PGS
  583. Muxing mode                              : zlib
  584. Codec ID                                 : S_HDMV/PGS
  585. Codec ID/Info                            : Picture based subtitle format used on BDs/HD-DVDs
  586. Duration                                 : 1 h 57 min
  587. Bit rate                                 : 24.5 kb/s
  588. Count of elements                        : 2518
  589. Stream size                              : 20.6 MiB (0%)
  590. Title                                    : Norwegian-PGS
  591. Language                                 : Norwegian
  592. Default                                  : No
  593. Forced                                   : No

  594. Text #16
  595. ID                                       : 34
  596. Format                                   : PGS
  597. Muxing mode                              : zlib
  598. Codec ID                                 : S_HDMV/PGS
  599. Codec ID/Info                            : Picture based subtitle format used on BDs/HD-DVDs
  600. Duration                                 : 2 h 1 min
  601. Bit rate                                 : 22.8 kb/s
  602. Count of elements                        : 2112
  603. Stream size                              : 19.8 MiB (0%)
  604. Title                                    : Russian-PGS
  605. Language                                 : Russian
  606. Default                                  : No
  607. Forced                                   : No

  608. Text #17
  609. ID                                       : 35
  610. Format                                   : PGS
  611. Muxing mode                              : zlib
  612. Codec ID                                 : S_HDMV/PGS
  613. Codec ID/Info                            : Picture based subtitle format used on BDs/HD-DVDs
  614. Duration                                 : 25 min 5 s
  615. Bit rate                                 : 313 b/s
  616. Count of elements                        : 4
  617. Stream size                              : 57.7 KiB (0%)
  618. Title                                    : Russian-FORCED-PGS
  619. Language                                 : Russian
  620. Default                                  : No
  621. Forced                                   : No

  622. Text #18
  623. ID                                       : 36
  624. Format                                   : PGS
  625. Muxing mode                              : zlib
  626. Codec ID                                 : S_HDMV/PGS
  627. Codec ID/Info                            : Picture based subtitle format used on BDs/HD-DVDs
  628. Duration                                 : 2 h 1 min
  629. Bit rate                                 : 23.0 kb/s
  630. Count of elements                        : 2522
  631. Stream size                              : 20.0 MiB (0%)
  632. Title                                    : Swedish-PGS
  633. Language                                 : Swedish
  634. Default                                  : No
  635. Forced                                   : No

  636. Text #19
  637. ID                                       : 37
  638. Format                                   : PGS
  639. Muxing mode                              : zlib
  640. Codec ID                                 : S_HDMV/PGS
  641. Codec ID/Info                            : Picture based subtitle format used on BDs/HD-DVDs
  642. Duration                                 : 2 h 1 min
  643. Bit rate                                 : 18.2 kb/s
  644. Count of elements                        : 2524
  645. Stream size                              : 15.8 MiB (0%)
  646. Title                                    : Chinese-PGS
  647. Language                                 : Chinese
  648. Default                                  : No
  649. Forced                                   : No

  650. Text #20
  651. ID                                       : 38
  652. Format                                   : PGS
  653. Muxing mode                              : zlib
  654. Codec ID                                 : S_HDMV/PGS
  655. Codec ID/Info                            : Picture based subtitle format used on BDs/HD-DVDs
  656. Duration                                 : 2 h 1 min
  657. Bit rate                                 : 20.8 kb/s
  658. Count of elements                        : 2518
  659. Stream size                              : 18.0 MiB (0%)
  660. Title                                    : Czech-PGS
  661. Language                                 : Czech
  662. Default                                  : No
  663. Forced                                   : No

  664. Text #21
  665. ID                                       : 39
  666. Format                                   : PGS
  667. Muxing mode                              : zlib
  668. Codec ID                                 : S_HDMV/PGS
  669. Codec ID/Info                            : Picture based subtitle format used on BDs/HD-DVDs
  670. Duration                                 : 1 h 20 min
  671. Bit rate                                 : 147 b/s
  672. Count of elements                        : 6
  673. Stream size                              : 87.0 KiB (0%)
  674. Title                                    : Czech-FORCED-PGS
  675. Language                                 : Czech
  676. Default                                  : No
  677. Forced                                   : No

  678. Text #22
  679. ID                                       : 40
  680. Format                                   : PGS
  681. Muxing mode                              : zlib
  682. Codec ID                                 : S_HDMV/PGS
  683. Codec ID/Info                            : Picture based subtitle format used on BDs/HD-DVDs
  684. Duration                                 : 2 h 1 min
  685. Bit rate                                 : 26.3 kb/s
  686. Count of elements                        : 2332
  687. Stream size                              : 22.8 MiB (0%)
  688. Title                                    : Greek-PGS
  689. Language                                 : Greek
  690. Default                                  : No
  691. Forced                                   : No

  692. Text #23
  693. ID                                       : 41
  694. Format                                   : PGS
  695. Muxing mode                              : zlib
  696. Codec ID                                 : S_HDMV/PGS
  697. Codec ID/Info                            : Picture based subtitle format used on BDs/HD-DVDs
  698. Duration                                 : 2 h 1 min
  699. Bit rate                                 : 22.0 kb/s
  700. Count of elements                        : 2558
  701. Stream size                              : 19.0 MiB (0%)
  702. Title                                    : Hindi-PGS
  703. Language                                 : Hindi
  704. Default                                  : No
  705. Forced                                   : No

  706. Text #24
  707. ID                                       : 42
  708. Format                                   : PGS
  709. Muxing mode                              : zlib
  710. Codec ID                                 : S_HDMV/PGS
  711. Codec ID/Info                            : Picture based subtitle format used on BDs/HD-DVDs
  712. Duration                                 : 1 h 20 min
  713. Bit rate                                 : 58 b/s
  714. Count of elements                        : 4
  715. Stream size                              : 34.3 KiB (0%)
  716. Title                                    : Hindi-FORCED-PGS
  717. Language                                 : Hindi
  718. Default                                  : No
  719. Forced                                   : No

  720. Text #25
  721. ID                                       : 43
  722. Format                                   : PGS
  723. Muxing mode                              : zlib
  724. Codec ID                                 : S_HDMV/PGS
  725. Codec ID/Info                            : Picture based subtitle format used on BDs/HD-DVDs
  726. Duration                                 : 2 h 1 min
  727. Bit rate                                 : 22.9 kb/s
  728. Count of elements                        : 2512
  729. Stream size                              : 19.9 MiB (0%)
  730. Title                                    : Hungarian-PGS
  731. Language                                 : Hungarian
  732. Default                                  : No
  733. Forced                                   : No

  734. Text #26
  735. ID                                       : 44
  736. Format                                   : PGS
  737. Muxing mode                              : zlib
  738. Codec ID                                 : S_HDMV/PGS
  739. Codec ID/Info                            : Picture based subtitle format used on BDs/HD-DVDs
  740. Duration                                 : 1 h 50 min
  741. Bit rate                                 : 67 b/s
  742. Count of elements                        : 4
  743. Stream size                              : 55.1 KiB (0%)
  744. Title                                    : Hungarian-FORCED-PGS
  745. Language                                 : Hungarian
  746. Default                                  : No
  747. Forced                                   : No

  748. Text #27
  749. ID                                       : 45
  750. Format                                   : PGS
  751. Muxing mode                              : zlib
  752. Codec ID                                 : S_HDMV/PGS
  753. Codec ID/Info                            : Picture based subtitle format used on BDs/HD-DVDs
  754. Duration                                 : 2 h 1 min
  755. Bit rate                                 : 15.4 kb/s
  756. Count of elements                        : 2492
  757. Stream size                              : 13.4 MiB (0%)
  758. Title                                    : Korean-PGS
  759. Language                                 : Korean
  760. Default                                  : No
  761. Forced                                   : No

  762. Text #28
  763. ID                                       : 46
  764. Format                                   : PGS
  765. Muxing mode                              : zlib
  766. Codec ID                                 : S_HDMV/PGS
  767. Codec ID/Info                            : Picture based subtitle format used on BDs/HD-DVDs
  768. Duration                                 : 2 h 1 min
  769. Bit rate                                 : 18.6 kb/s
  770. Count of elements                        : 2522
  771. Stream size                              : 16.2 MiB (0%)
  772. Title                                    : Chinese-PGS
  773. Language                                 : Chinese
  774. Default                                  : No
  775. Forced                                   : No

  776. Text #29
  777. ID                                       : 47
  778. Format                                   : PGS
  779. Muxing mode                              : zlib
  780. Codec ID                                 : S_HDMV/PGS
  781. Codec ID/Info                            : Picture based subtitle format used on BDs/HD-DVDs
  782. Duration                                 : 2 h 1 min
  783. Bit rate                                 : 21.0 kb/s
  784. Count of elements                        : 2460
  785. Stream size                              : 18.3 MiB (0%)
  786. Title                                    : Polish-PGS
  787. Language                                 : Polish
  788. Default                                  : No
  789. Forced                                   : No

  790. Text #30
  791. ID                                       : 48
  792. Format                                   : PGS
  793. Muxing mode                              : zlib
  794. Codec ID                                 : S_HDMV/PGS
  795. Codec ID/Info                            : Picture based subtitle format used on BDs/HD-DVDs
  796. Duration                                 : 1 h 20 min
  797. Bit rate                                 : 295 b/s
  798. Count of elements                        : 10
  799. Stream size                              : 174 KiB (0%)
  800. Title                                    : Polish-FORCED-PGS
  801. Language                                 : Polish
  802. Default                                  : No
  803. Forced                                   : No

  804. Text #31
  805. ID                                       : 49
  806. Format                                   : PGS
  807. Muxing mode                              : zlib
  808. Codec ID                                 : S_HDMV/PGS
  809. Codec ID/Info                            : Picture based subtitle format used on BDs/HD-DVDs
  810. Duration                                 : 2 h 1 min
  811. Bit rate                                 : 22.7 kb/s
  812. Count of elements                        : 2510
  813. Stream size                              : 19.7 MiB (0%)
  814. Title                                    : Romanian-PGS
  815. Language                                 : Romanian
  816. Default                                  : No
  817. Forced                                   : No

  818. Text #32
  819. ID                                       : 50
  820. Format                                   : PGS
  821. Muxing mode                              : zlib
  822. Codec ID                                 : S_HDMV/PGS
  823. Codec ID/Info                            : Picture based subtitle format used on BDs/HD-DVDs
  824. Duration                                 : 2 h 1 min
  825. Bit rate                                 : 19.1 kb/s
  826. Count of elements                        : 2522
  827. Stream size                              : 16.6 MiB (0%)
  828. Title                                    : Thai-PGS
  829. Language                                 : Thai
  830. Default                                  : No
  831. Forced                                   : No

  832. Text #33
  833. ID                                       : 51
  834. Format                                   : PGS
  835. Muxing mode                              : zlib
  836. Codec ID                                 : S_HDMV/PGS
  837. Codec ID/Info                            : Picture based subtitle format used on BDs/HD-DVDs
  838. Duration                                 : 1 h 20 min
  839. Bit rate                                 : 80 b/s
  840. Count of elements                        : 4
  841. Stream size                              : 47.3 KiB (0%)
  842. Title                                    : Thai-FORCED-PGS
  843. Language                                 : Thai
  844. Default                                  : No
  845. Forced                                   : No

  846. Menu
  847. 00:00:00.000                             : en:Chapter 01
  848. 00:03:28.708                             : en:Chapter 02
  849. 00:07:51.679                             : en:Chapter 03
  850. 00:10:07.648                             : en:Chapter 04
  851. 00:13:06.702                             : en:Chapter 05
  852. 00:15:06.488                             : en:Chapter 06
  853. 00:18:04.541                             : en:Chapter 07
  854. 00:22:58.585                             : en:Chapter 08
  855. 00:25:35.325                             : en:Chapter 09
  856. 00:31:40.899                             : en:Chapter 10
  857. 00:33:29.215                             : en:Chapter 11
  858. 00:36:32.607                             : en:Chapter 12
  859. 00:38:30.808                             : en:Chapter 13
  860. 00:42:05.481                             : en:Chapter 14
  861. 00:45:57.963                             : en:Chapter 15
  862. 00:48:31.199                             : en:Chapter 16
  863. 00:52:57.382                             : en:Chapter 17
  864. 00:55:14.227                             : en:Chapter 18
  865. 01:00:39.594                             : en:Chapter 19
  866. 01:02:56.564                             : en:Chapter 20
  867. 01:05:16.621                             : en:Chapter 21
  868. 01:10:50.496                             : en:Chapter 22
  869. 01:13:37.204                             : en:Chapter 23
  870. 01:16:34.965                             : en:Chapter 24
  871. 01:18:51.935                             : en:Chapter 25
  872. 01:22:48.088                             : en:Chapter 26
  873. 01:24:55.340                             : en:Chapter 27
  874. 01:28:25.216                             : en:Chapter 28
  875. 01:33:18.551                             : en:Chapter 29
  876. 01:36:08.554                             : en:Chapter 30
  877. 01:41:54.358                             : en:Chapter 31
  878. 01:45:23.442                             : en:Chapter 32
  879. 01:48:16.490                             : en:Chapter 33
  880. 01:51:43.613                             : en:Chapter 34
  881. 01:54:43.668                             : en:Chapter 35
  882. 01:56:51.504                             : en:Chapter 36
复制代码

阿丽塔:战役天使/艾莉塔:战役天使 Alita.Battle.Angel.2019.2160p.BluRay.REMUX.HEVC.DTS-HD.MA.TrueHD.7.1.Atmos-FGT 53.30GB-2.png 阿丽塔:战役天使/艾莉塔:战役天使 Alita.Battle.Angel.2019.2160p.BluRay.REMUX.HEVC.DTS-HD.MA.TrueHD.7.1.Atmos-FGT 53.30GB-3.png 阿丽塔:战役天使/艾莉塔:战役天使 Alita.Battle.Angel.2019.2160p.BluRay.REMUX.HEVC.DTS-HD.MA.TrueHD.7.1.Atmos-FGT 53.30GB-4.png







本帖隐藏的下载地址需要VIP会员才可阅读,您需要升级才可阅读,点击这里升级VIP

回复

使用道具 举报

 成长值: 4000

级别:尊贵的会员

注册时间
2019-12-30
最后登录
2020-9-28
听众
4
收听
0
主题
0
蓝光币
142 枚
贡献
0 点
发表于 2020-1-30 10:14:41 | 显示全部楼层
楼主发贴辛苦了,谢谢楼主分享!我觉得中国高清电影网是注册对了!
回复

使用道具 举报

级别:初级观众 Lv.1

注册时间
2019-6-17
最后登录
2020-2-7
听众
7
收听
0
主题
0
蓝光币
1 枚
贡献
0 点
发表于 2020-1-30 13:52:46 | 显示全部楼层
楼主发贴辛苦了,谢谢楼主分享!
回复

使用道具 举报

级别:初级观众 Lv.1

注册时间
2020-9-1
最后登录
2020-9-15
听众
2
收听
0
主题
0
蓝光币
2 枚
贡献
0 点
QQ
发表于 2020-9-14 22:41:40 | 显示全部楼层

我看不错噢 谢谢楼主!中国高清电影网越来越好!
回复

使用道具 举报

级别:初级观众 Lv.1

注册时间
2020-4-9
最后登录
2020-9-26
听众
4
收听
0
主题
0
蓝光币
4 枚
贡献
0 点
发表于 2020-9-15 15:19:50 | 显示全部楼层
楼主发贴辛苦了,谢谢楼主分享!我觉得中国高清电影网是注册对了!
回复

使用道具 举报

懒得打字嘛,点击右侧快捷回复 【右侧内容,后台自定义】
您需要登录后才可以回帖 登录 | 立即注册

本版积分规则

Archiver|手机版|小黑屋| 中国高清网 ( ICP备17007870号-2 ) |网站地图 

GMT+8, 2020-9-29 01:23 , Processed in 0.335071 second(s), 40 queries .

Powered by HDchina X3.4

Copyright 2017-2019©HDchina.All right reserved

返回顶部 联系我们