查看: 95|回复: 3

[剧情片] 狂喜 Rapture.1979.720p.BluRay.x264-USURY 5.47GB

[复制链接]

 成长值: 2200

级别:资源管理组

注册时间
2017-10-20
最后登录
2019-8-17
听众
1
收听
0
主题
80689
蓝光币
41951 枚
贡献
5016 点
发表于 2019-7-9 23:30:49 | 显示全部楼层 |阅读模式
狂喜 Rapture.1979.720p.BluRay.x264-USURY 5.47GB-1.png
; g0 q3 J2 `, w1 ?
  v  h4 G) p) r; K' b( ?" c译  名 狂喜 / Arrebato / Rapture  u. S  y; e4 P
片  名 Arrebato
, o, a1 a' d% [8 f8 s) {) Y, N年  代 1979
( C; G" i7 B" \& L3 m5 V8 Y  i) ~产  地 西班牙! C2 K+ p1 L3 |0 B  [" ^: H+ Q
类  别 剧情 / 可骇
7 L9 ?: G0 b8 q8 m9 l# k& e4 k语  言 西班牙语  z2 R( B9 h  g( g, G. D
上映日期 1979(西班牙)" E" w* r; h3 B; n( ?
IMDb评分  7.2/10 from 1811 users' c# }( p+ u: G
IMDb链接  http://www.imdb.com/title/tt0078797* ~1 o! T* W0 O; z9 U* z8 ~
豆瓣评分 7.6/10 from 186 users, K* S% y  q% z8 Y" ]
豆瓣链接 https://movie.douban.com/subject/2278780/" ~1 ~: x  Z, K2 `+ G- i/ t& ]
片  长 105 分钟
5 s% d% a$ C) R! t- f% s6 a导  演 Iván Zulueta
8 p4 g5 \( e- m3 ~% c# x编  剧 Iván Zulueta( H+ v" h3 C& M( T0 b3 A
主  演 Eusebio Poncela
0 @1 }% T" g, F8 s) u& C      Cecilia Roth
9 \) c/ m; A3 r* P  O0 ?$ g+ `      Will More
/ I4 @& T! Y7 q: M: {; r% ^/ W6 x; n- J9 U

( K+ f. \- V+ @标  签 西班牙 | 超现实 | cult | 西班牙电影 | 超现实主义 | IvanZulueta | 1980s | 19801 i) N# U- _! @  t! G
9 g# o/ S3 K' V
简  介  
4 X! |' a- d- O% u2 ?7 A  U8 U* I  {0 b0 y1 @$ a- C
  Jose is a filmmaker putting the finishing touches on his latest production, a schlocky vampire picture. Feeling supremely dissatisfied with his vocation and heroin addicted girlfriend Ana, he arrives back at his apartment to discover a package from his friend Pedro. It contains a reel of super 8mm film, an audiotape and a key to Pedro’s apartment.
- Y9 z% x- |5 G. aFlashbacks show how these two men, both of whom share an extraordinary passion for filmmaking, met at Pedro’s family home where Jose was location scouting. Pedro, who’s never without his super 8mm camera, believes life is only worth anything if it’s caught on film. Furthermore, he’s tapped a hidden power inherent in film images that causes him to experience a mystical state of “Arrebato,” or rapture. Before long Pedro becomes addicted to this sensation, eventually cutting himself off from the outside world and devoting his life to filming himself in bed. His camera in turn grows increasingly powerful as it saps more and more of Pedro’s life force, eventually developing the capacity to turn itself on and off and, more alarmingly, literally erase objects—and, inevitably, people—from existence.) G& S& E, N" D4 ?' b7 z+ X. \
All this is evident on the film and tape Pedro has mailed to Jose, who in the end decides to visit his friend’s apartment. He arrives to find Pedro’s camera set up and running, but its owner nowhere to be found...- V: p, v; g/ A0 z9 G
. h1 Y* T- }/ g
  1. Video
    ) @+ `# p' t' Y
  2. ID                                       : 14 C6 W# G& S0 M) o
  3. Format                                   : AVC
    # w( c) ?* k" H3 Z7 T$ n
  4. Format/Info                              : Advanced Video Codec6 z6 x! H, U1 d4 Z1 Z( ]; q
  5. Format profile                           : <a href="/cdn-cgi/l/email-protection" class="__cf_email__" data-cfemail="1058797778505c243e21">[email protected]</a>
    9 N! w7 C0 _' i$ \7 l! j
  6. Format settings                          : CABAC / 5 Ref Frames# V' H% [( z3 c! W6 `& A# F+ N& g
  7. Format settings, CABAC                   : Yes
      D1 L7 d0 N4 V4 p' p2 P& t
  8. Format settings, ReFrames                : 5 frames! V( F' s' b5 x  [; o/ S
  9. Codec ID                                 : V_MPEG4/ISO/AVC7 f; H' M- X' a
  10. Duration                                 : 1 h 54 min
    3 U) P# v: G" M: l# |7 i3 C* Q
  11. Bit rate                                 : 5 331 kb/s( F8 P# ]% G4 d! M+ ^
  12. Width                                    : 1 168 pixels% d7 e5 S+ h+ ^4 n# A
  13. Height                                   : 720 pixels; ^$ T2 Z, B4 o+ _# R9 I/ M
  14. Display aspect ratio                     : 16:10# U' X2 t8 c- @2 Y5 ]
  15. Frame rate mode                          : Constant5 b# u6 [0 x' p% P) n  d( e
  16. Frame rate                               : 24.000 FPS, }  Z) ]$ f0 z, I9 z4 G+ m" Z; W# T
  17. Color space                              : YUV# g; H  x/ `  p
  18. Chroma subsampling                       : 4:2:0
    " Z9 h- u4 p, @7 h6 A1 h0 s% G3 e! g
  19. Bit depth                                : 8 bits
    ' |) W5 Z- O- Z  P( m# w9 y
  20. Scan type                                : Progressive
    2 ~# X& b6 a6 s# Y& b& ~
  21. Bits/(Pixel*Frame)                       : 0.264
    + F9 X3 A, M9 D" f
  22. Stream size                              : 4.26 GiB (78%)
    8 ^9 I; s) o! S: @
  23. Writing library                          : x264 core 157 r2969 d4099dd
    7 p  R0 g8 z  x3 g
  24. Encoding settings                        : cabac=1 / ref=5 / deblock=1:-3:-3 / analyse=0x3:0x133 / me=umh / subme=9 / psy=1 / psy_rd=1.00:0.00 / mixed_ref=1 / me_range=16 / chroma_me=1 / trellis=2 / 8x8dct=1 / cqm=0 / deadzone=21,11 / fast_pskip=0 / chroma_qp_offset=-2 / threads=18 / lookahead_threads=1 / sliced_threads=0 / nr=0 / decimate=1 / interlaced=0 / bluray_compat=0 / constrained_intra=0 / bframes=3 / b_pyramid=2 / b_adapt=1 / b_bias=0 / direct=3 / weightb=1 / open_gop=0 / weightp=2 / keyint=240 / keyint_min=24 / scenecut=40 / intra_refresh=0 / rc_lookahead=50 / rc=2pass / mbtree=1 / bitrate=5331 / ratetol=1.0 / qcomp=0.60 / qpmin=0 / qpmax=69 / qpstep=4 / cplxblur=20.0 / qblur=0.5 / ip_ratio=1.40 / aq=1:1.00
    . [* P' ^* [1 a7 x' e
  25. Language                                 : English7 W5 k' `5 ]. L* ]
  26. Default                                  : Yes
    5 M: z! n0 J$ h  p/ o9 k4 V
  27. Forced                                   : No+ u  t6 B  C+ x. |! e( g  m9 I
  28. * ~, x) p9 C* y# S8 o% F6 H
  29. Audio
    + t% V/ C! L) @9 o  o( V# y
  30. ID                                       : 2
    7 m! V! M  I; ?* f# p2 G5 M7 S0 h6 F
  31. Format                                   : DTS0 L& E% ?( h3 F# |
  32. Format/Info                              : Digital Theater Systems
    3 H7 h; q; L0 b% o9 }- W4 S& i6 s5 Z
  33. Codec ID                                 : A_DTS
    - N# T! O5 e4 C
  34. Duration                                 : 1 h 54 min9 ^" _% J8 f! O( E% `: ]7 N4 H
  35. Bit rate mode                            : Constant
    " f7 }( U6 S' H. ?7 q7 s
  36. Bit rate                                 : 1 509 kb/s
    9 {8 }! u* W6 Y! |" M9 q6 S+ e$ J
  37. Channel(s)                               : 2 channels
    : `6 j$ e1 P9 h4 s6 {! k' S
  38. Channel layout                           : L R
    3 \, q1 R# p& n& u) g9 e
  39. Sampling rate                            : 48.0 kHz
    9 O; j$ Q1 t+ l, f0 R9 p) W5 q
  40. Frame rate                               : 93.750 FPS (512 SPF)
    & m7 R1 H5 G3 y
  41. Bit depth                                : 24 bits1 a0 v+ @- c0 x  F7 _( J$ b7 P
  42. Compression mode                         : Lossy3 f! W4 Z) ~5 B& v+ Q4 {
  43. Stream size                              : 1.21 GiB (22%)
    ! H9 u) b6 j) r9 _- d$ N
  44. Language                                 : Spanish1 d% b8 \! s9 ?" n. `; w
  45. Default                                  : Yes
    / X9 ~* n  c( O- g* t/ ~
  46. Forced                                   : No: _" s5 m4 Z9 J" g
  47. - c! y5 |8 H: I" H
  48. Text7 D0 S+ t6 S" h5 m
  49. ID                                       : 3
    ) Q" n" L8 {$ J0 Z1 ?
  50. Format                                   : UTF-8
    - a4 N6 |/ k# \$ v) U8 `1 t* f5 v
  51. Codec ID                                 : S_TEXT/UTF8
    0 p7 G+ B% n* Y
  52. Codec ID/Info                            : UTF-8 Plain Text
    & u7 Y5 O: A# l' ^* }8 J& T( f' G
  53. Duration                                 : 1 h 48 min
    * A. ]) F' N* B. r. [; \2 i3 F
  54. Bit rate                                 : 48 b/s$ k; s8 ^) j- A. C/ {
  55. Count of elements                        : 848
    $ h" l, N' P: c
  56. Stream size                              : 38.7 KiB (0%)9 j0 U) ~' t0 s( N7 a
  57. Title                                    : English6 Y* Q) g: C, o/ Q% m
  58. Language                                 : English
    0 F( R; ], p" J0 H3 s) ?
  59. Default                                  : Yes
    0 K" V5 W. t6 W& c! E3 P* n! F7 c
  60. Forced                                   : Yes7 h5 e3 H& a" \( v& |
  61. 4 @& H$ a, f, Z6 [+ W& s4 B/ m
  62. Menu& P: f: o% R$ l$ o
  63. 00:00:00.000                             : en:00:00:00.000
    2 |+ G0 ?! ^7 S; x( A  d6 C
  64. 00:13:20.000                             : en:00:13:20.000
    ; A* g/ w* U: h2 ^0 I
  65. 00:27:12.000                             : en:00:27:12.000
    ' O5 Z& d* Q2 t" V3 o( X
  66. 00:42:18.625                             : en:00:42:18.625
    $ U0 ~( p2 u, G- E- E6 \4 }
  67. 00:55:38.625                             : en:00:55:38.6254 N% X; Y4 ~. u
  68. 01:06:40.000                             : en:01:06:40.0007 [4 g& G3 A2 V3 J$ I9 t
  69. 01:18:24.000                             : en:01:18:24.0003 Q" R/ _5 W# K8 h" }* l
  70. 01:29:36.000                             : en:01:29:36.000
    2 {! {8 z; W  W  \1 g2 f
  71. 01:40:26.625                             : en:01:40:26.6250 n1 o3 t, y$ \; B# `/ F# V
  72. 01:47:22.625                             : en:01:47:22.625( N* I- T6 L/ ^( U; O! T: W/ k
复制代码
% F' t  g# W( w! S& t
狂喜 Rapture.1979.720p.BluRay.x264-USURY 5.47GB-2.png
0 M3 ^6 `5 S# R  }/ ^9 j, S% e0 M. h# O$ Z
+ ~% G5 u: i( Q% I, E  }3 S0 O
) m$ c6 F! F5 T8 O4 G

% k0 Q  p; E( I9 T( m1 a+ O$ x- m5 i% t" I: l

- x) ~3 C  v! H% h5 E8 M0 ^
回复

使用道具 举报

级别:荣升主角 Lv.5

注册时间
2019-4-24
最后登录
2019-8-16
听众
11
收听
0
主题
0
蓝光币
85 枚
贡献
0 点
发表于 2019-7-10 07:54:51 | 显示全部楼层
楼主发贴辛苦了,谢谢楼主分享!我觉得中国高清电影网是注册对了!
回复

使用道具 举报

级别:荣升主角 Lv.5

注册时间
2019-2-3
最后登录
2019-8-17
听众
12
收听
0
主题
0
蓝光币
157 枚
贡献
0 点
发表于 2019-7-10 18:04:41 | 显示全部楼层
楼主发贴辛苦了,谢谢楼主分享!我觉得中国高清电影网是注册对了!
回复

使用道具 举报

级别:初级观众 Lv.1

注册时间
2019-7-10
最后登录
2019-7-23
听众
3
收听
0
主题
0
蓝光币
19 枚
贡献
0 点
QQ
发表于 2019-7-11 16:35:25 | 显示全部楼层
5 J" c* t3 |. C& m8 T
既然你诚信诚意的推荐了,那我就勉为其难的看看吧!中国高清电影网不走平凡路。
回复

使用道具 举报

懒得打字嘛,点击右侧快捷回复 【右侧内容,后台自定义】
您需要登录后才可以回帖 登录 | 立即注册

本版积分规则

QQ|Archiver|手机版|小黑屋| 中国高清网 |网站地图

GMT+8, 2019-8-17 20:53 , Processed in 0.433303 second(s), 40 queries .

Powered by HDchina X3.4

Copyright 2017-2019©HDchina.All right reserved

返回顶部 联系我们