查看: 49|回复: 0

[剧情片] 渔民的朋友 Fishermans.Friends.2019.1080p.WEBRip.x264-RARBG 2.13GB

[复制链接]

 成长值: 2200

级别:资源管理组

注册时间
2017-10-20
最后登录
2019-8-17
听众
1
收听
0
主题
80689
蓝光币
41959 枚
贡献
5016 点
发表于 2019-7-9 20:05:36 | 显示全部楼层 |阅读模式
渔民的朋友 Fishermans.Friends.2019.1080p.WEBRip.x264-RARBG 2.13GB-1.png

译  名 渔民的朋友
片  名 Fisherman's Friends
年  代 2019
产  地 英国
类  别 剧情 / 笑剧 / 音乐
语  言 英语
上映日期 2019-03-15(英国)
IMDb评分  7.0/10 from 1139 users
IMDb链接  http://www.imdb.com/title/tt1648186
豆瓣评分 0/10 from 0 users
豆瓣链接 https://movie.douban.com/subject/30451958/
导  演 Chris Foggin
编  剧 Piers Ashworth / 梅格·伦纳德 Meg Leonard
主  演 詹姆斯·鲍弗 James Purefoy
      丹尼尔·梅斯 Daniel Mays
      塔彭丝·米德尔顿 Tuppence Middleton
      诺埃尔·克拉克 Noel Clarke
      克里斯托弗·维利尔斯 Christopher Villiers
      萨姆·斯温斯伯里 Sam Swainsbury
      大卫·海曼 David Hayman
      玛姬·斯蒂德 Maggie Steed


标  签 英国 | 真事改编 | 笑剧 | 音乐 | 实在事务改编 | 大海啊大海 | Documentary | 2019

简  介  

  Ten fisherman from Cornwall are signed by Universal Records and achieve a top ten hit with their debut album of Sea Shanties.

  1. Video
  2. ID                                       : 1
  3. Format                                   : AVC
  4. Format/Info                              : Advanced Video Codec
  5. Format profile                           : <a href="/cdn-cgi/l/email-protection" class="__cf_email__" data-cfemail="d991b0beb19995edf7e8">[email protected]</a>
  6. Format settings                          : CABAC / 4 Ref Frames
  7. Format settings, CABAC                   : Yes
  8. Format settings, ReFrames                : 4 frames
  9. Codec ID                                 : avc1
  10. Codec ID/Info                            : Advanced Video Coding
  11. Duration                                 : 1 h 51 min
  12. Bit rate                                 : 2 500 kb/s
  13. Width                                    : 1 912 pixels
  14. Height                                   : 796 pixels
  15. Display aspect ratio                     : 2.40:1
  16. Frame rate mode                          : Constant
  17. Frame rate                               : 24.000 FPS
  18. Color space                              : YUV
  19. Chroma subsampling                       : 4:2:0
  20. Bit depth                                : 8 bits
  21. Scan type                                : Progressive
  22. Bits/(Pixel*Frame)                       : 0.068
  23. Stream size                              : 1.95 GiB (92%)
  24. Writing library                          : x264 core 152 r2851M ba24899
  25. Encoding settings                        : cabac=1 / ref=4 / deblock=1:-1:-1 / analyse=0x3:0x113 / me=umh / subme=9 / psy=1 / psy_rd=1.00:0.15 / mixed_ref=1 / me_range=24 / chroma_me=1 / trellis=2 / 8x8dct=1 / cqm=0 / deadzone=21,11 / fast_pskip=1 / chroma_qp_offset=-3 / threads=32 / lookahead_threads=4 / sliced_threads=0 / nr=0 / decimate=1 / interlaced=0 / bluray_compat=0 / constrained_intra=0 / bframes=3 / b_pyramid=2 / b_adapt=2 / b_bias=0 / direct=3 / weightb=1 / open_gop=0 / weightp=2 / keyint=250 / keyint_min=25 / scenecut=40 / intra_refresh=0 / rc_lookahead=50 / rc=2pass / mbtree=1 / bitrate=2500 / ratetol=1.0 / qcomp=0.60 / qpmin=0 / qpmax=69 / qpstep=4 / cplxblur=20.0 / qblur=0.5 / vbv_maxrate=31250 / vbv_bufsize=31250 / nal_hrd=none / filler=0 / ip_ratio=1.40 / aq=3:1.00
  26. Encoded date                             : UTC 2019-07-08 07:32:13
  27. Tagged date                              : UTC 2019-07-08 07:32:13
  28. Codec configuration box                  : avcC

  29. Audio
  30. ID                                       : 2
  31. Format                                   : AAC LC
  32. Format/Info                              : Advanced Audio Codec Low Complexity
  33. Codec ID                                 : mp4a-40-2
  34. Duration                                 : 1 h 51 min
  35. Bit rate mode                            : Constant
  36. Bit rate                                 : 224 kb/s
  37. Channel(s)                               : 6 channels
  38. Channel layout                           : C L R Ls Rs LFE
  39. Sampling rate                            : 48.0 kHz
  40. Frame rate                               : 46.875 FPS (1024 SPF)
  41. Compression mode                         : Lossy
  42. Stream size                              : 179 MiB (8%)
  43. Language                                 : English
  44. Default                                  : Yes
  45. Alternate group                          : 1
  46. Encoded date                             : UTC 2019-07-08 07:32:13
  47. Tagged date                              : UTC 2019-07-08 07:32:13
复制代码

渔民的朋友 Fishermans.Friends.2019.1080p.WEBRip.x264-RARBG 2.13GB-2.png 渔民的朋友 Fishermans.Friends.2019.1080p.WEBRip.x264-RARBG 2.13GB-3.png 渔民的朋友 Fishermans.Friends.2019.1080p.WEBRip.x264-RARBG 2.13GB-4.png






回复

使用道具 举报

懒得打字嘛,点击右侧快捷回复 【右侧内容,后台自定义】
您需要登录后才可以回帖 登录 | 立即注册

本版积分规则

QQ|Archiver|手机版|小黑屋| 中国高清网 |网站地图

GMT+8, 2019-8-17 21:31 , Processed in 0.497848 second(s), 39 queries .

Powered by HDchina X3.4

Copyright 2017-2019©HDchina.All right reserved

返回顶部 联系我们