查看: 131|回复: 1

[动作片] 反贪风暴4 P.Storm.2019.CHINESE.1080p.BluRay.REMUX.AVC.DTS-HD.MA.TrueHD.7.1.Atmos-FGT 20.64GB

[复制链接]

 成长值: 2200

级别:资源管理组

注册时间
2017-10-20
最后登录
2019-8-17
听众
1
收听
0
主题
80689
蓝光币
41951 枚
贡献
5016 点
发表于 2019-7-1 11:57:04 | 显示全部楼层 |阅读模式
反贪风暴4 P.Storm.2019.CHINESE.1080p.BluRay.REMUX.AVC.DTS-HD.MA.TrueHD.7.1.Atmos-FGT 20.64GB-1.png

译  名 反贪风暴4 / P Storm
片  名 P風暴
年  代 2019
产  地 香港 / 中国大陆
类  别 行动 / 犯罪
语  言 粤语 / 汉语普通话
上映日期 2019-04-04(中国大陆)
IMDb评分6.0/10 from 199 users
IMDb链接http://www.imdb.com/title/tt10017680
豆瓣评分 6.0/10 from 94544 users
豆瓣链接 https://movie.douban.com/subject/27202819/
片  长 100分钟
导  演 林德禄David Lam
编  剧 黄浩华 Ho-Wa Wong / 何文龙 Wen Long Ho
主  演 古天乐 Louis Koo
      郑嘉颖 Kevin Cheng
      林峯 Raymond Lam
      林家栋 Ka Tung Lam
      周秀娜 Chrissie Chaw
      张智霖 Julian Cheung
      谭耀文 Patrick Tam
      张继聪 Louis Cheung
      蔡瀚亿 Babyjohn Choi
      廖启智 Kai Chi Liu
      艾威 Wei Ai
      卢海鹏 Hoi-Pang Lo
      夏嫣 Janelle Sing
      黄致豪 Stephen Huynh
      张松枝 Deno Cheung
      张建声 Justin Cheung
      栢天男 Adam Pak
      丁海峰 Haifeng Ding
      刘梦娜 Mengna Liu
      陈静 Dada Chan
      朱鉴然 kevin Chu
      灰熊 Kumer So
      石修 Sau Sek
      陈曼娜 Chan Man-Na
      关礼杰 Eddie Kwan
      薛世恒 Daniel Suek


标  签 香港 | 警匪 | 犯罪 | ICAC系列第四部 | 行动 | 2019 | 悬疑 | 中国

简  介

  廉政公署收到报案人廖雨萍(周秀娜饰)的实名告发,告发正在座牢的富二代曹元元(林峯饰)涉嫌行贿牢狱里的监视沈济全(谭耀文饰)以及惩教员,首席观察主任陆志廉(古天乐饰)决议深入虎穴,卧底狱中。在牢狱里,被陆志廉送入牢狱的前警司黄文彬(林家栋饰)以及曹元元两大帮派势成水火,陆志廉乘隙接近曹元元获得信赖。同时牢狱外的廉政公署总观察主任程德明(郑嘉颖饰)、国内反贪局行动处处长洪亮(丁海峰饰)也陆港联手,通力合作,终极成功破获贪腐行贿大案。


  1. Video
  2. ID             : 1
  3. Format           : AVC
  4. Format/Info          : Advanced Video Codec
  5. Format profile         : <a href="/cdn-cgi/l/email-protection" class="__cf_email__" data-cfemail="b6fedfd1def6fa829887">[email protected]</a>
  6. Format settings        : CABAC / 4 Ref Frames
  7. Format settings, CABAC       : Yes
  8. Format settings, ReFrames      : 4 frames
  9. Codec ID           : V_MPEG4/ISO/AVC
  10. Duration           : 1 h 36 min
  11. Bit rate mode          : Variable
  12. Bit rate           : 19.3 Mb/s
  13. Maximum bit rate         : 20.0 Mb/s
  14. Width            : 1 920 pixels
  15. Height           : 1 080 pixels
  16. Display aspect ratio       : 16:9
  17. Frame rate mode        : Constant
  18. Frame rate           : 24.000 FPS
  19. Color space          : YUV
  20. Chroma subsampling       : 4:2:0
  21. Bit depth          : 8 bits
  22. Scan type          : Progressive
  23. Bits/(Pixel*Frame)       : 0.388
  24. Stream size          : 13.0 GiB (63%)
  25. Title            : P.Storm.2019.CHINESE.1080p.BluRay.REMUX.AVC.DTS-HD.MA.TrueHD.7.1.Atmos-FGT
  26. Language           : English
  27. Default            : No
  28. Forced           : No

  29. Audio #1
  30. ID             : 2
  31. Format           : MLP FBA 16-ch
  32. Format/Info          : Meridian Lossless Packing FBA with 16-channel presentation
  33. Commercial name        : Dolby TrueHD with Dolby Atmos
  34. Codec ID           : A_TRUEHD
  35. Duration           : 1 h 36 min
  36. Bit rate mode          : Variable
  37. Bit rate           : 5 130 kb/s
  38. Maximum bit rate         : 8 238 kb/s
  39. Channel(s)           : 8 channels
  40. Channel layout         : L R C LFE Ls Rs Lb Rb
  41. Sampling rate          : 48.0 kHz
  42. Frame rate           : 1 200.000 FPS (40 SPF)
  43. Compression mode         : Lossless
  44. Stream size          : 3.45 GiB (17%)
  45. Title            : P.Storm.2019.CHINESE.1080p.BluRay.REMUX.AVC.DTS-HD.MA.TrueHD.7.1.Atmos-FGT
  46. Language           : Chinese
  47. Default            : Yes
  48. Forced           : No
  49. Number of dynamic objects      : 11
  50. Bed channel count        : 1 channel
  51. Bed channel configuration      : LFE

  52. Audio #2
  53. ID             : 3
  54. Format           : DTS XLL
  55. Format/Info          : Digital Theater Systems
  56. Commercial name        : DTS-HD Master Audio
  57. Codec ID           : A_DTS
  58. Duration           : 1 h 36 min
  59. Bit rate mode          : Variable
  60. Bit rate           : 4 311 kb/s
  61. Channel(s)           : 8 channels
  62. Channel layout         : C L R LFE Lb Rb Lss Rss
  63. Sampling rate          : 48.0 kHz
  64. Frame rate           : 93.750 FPS (512 SPF)
  65. Bit depth          : 24 bits
  66. Compression mode         : Lossless
  67. Stream size          : 2.90 GiB (14%)
  68. Title            : P.Storm.2019.CHINESE.1080p.BluRay.REMUX.AVC.DTS-HD.MA.TrueHD.7.1.Atmos-FGT
  69. Language           : Chinese
  70. Default            : No
  71. Forced           : No

  72. Audio #3
  73. ID             : 4
  74. Format           : AC-3
  75. Format/Info          : Audio Coding 3
  76. Commercial name        : Dolby Digital
  77. Codec ID           : A_AC3
  78. Duration           : 1 h 36 min
  79. Bit rate mode          : Constant
  80. Bit rate           : 640 kb/s
  81. Channel(s)           : 6 channels
  82. Channel layout         : L R C LFE Ls Rs
  83. Sampling rate          : 48.0 kHz
  84. Frame rate           : 31.250 FPS (1536 SPF)
  85. Bit depth          : 16 bits
  86. Compression mode         : Lossy
  87. Stream size          : 440 MiB (2%)
  88. Title            : P.Storm.2019.CHINESE.1080p.BluRay.REMUX.AVC.DTS-HD.MA.TrueHD.7.1.Atmos-FGT
  89. Language           : Chinese
  90. Service kind         : Complete Main
  91. Default            : No
  92. Forced           : No

  93. Audio #4
  94. ID             : 5
  95. Format           : E-AC-3
  96. Format/Info          : Enhanced AC-3
  97. Commercial name        : Dolby Digital Plus
  98. Format profile         : Blu-ray Disc
  99. Codec ID           : A_EAC3
  100. Duration           : 1 h 36 min
  101. Bit rate mode          : Constant
  102. Bit rate           : 768 kb/s
  103. Channel(s)           : 8 channels
  104. Channel layout         : L R C LFE Ls Rs Lb Rb
  105. Sampling rate          : 48.0 kHz
  106. Frame rate           : 31.250 FPS (1536 SPF)
  107. Compression mode         : Lossy
  108. Stream size          : 529 MiB (3%)
  109. Title            : P.Storm.2019.CHINESE.1080p.BluRay.REMUX.AVC.DTS-HD.MA.TrueHD.7.1.Atmos-FGT
  110. Language           : Chinese
  111. Service kind         : Complete Main
  112. Default            : No
  113. Forced           : No

  114. Audio #5
  115. ID             : 6
  116. Format           : AC-3
  117. Format/Info          : Audio Coding 3
  118. Commercial name        : Dolby Digital
  119. Codec ID           : A_AC3
  120. Duration           : 1 h 36 min
  121. Bit rate mode          : Constant
  122. Bit rate           : 448 kb/s
  123. Channel(s)           : 6 channels
  124. Channel layout         : L R C LFE Ls Rs
  125. Sampling rate          : 48.0 kHz
  126. Frame rate           : 31.250 FPS (1536 SPF)
  127. Bit depth          : 16 bits
  128. Compression mode         : Lossy
  129. Stream size          : 308 MiB (1%)
  130. Title            : P.Storm.2019.CHINESE.1080p.BluRay.REMUX.AVC.DTS-HD.MA.TrueHD.7.1.Atmos-FGT
  131. Language           : Chinese
  132. Service kind         : Complete Main
  133. Default            : No
  134. Forced           : No

  135. Text #1
  136. ID             : 7
  137. Format           : UTF-8
  138. Codec ID           : S_TEXT/UTF8
  139. Codec ID/Info          : UTF-8 Plain Text
  140. Duration           : 1 h 32 min
  141. Bit rate           : 45 b/s
  142. Count of elements        : 1423
  143. Stream size          : 30.6 KiB (0%)
  144. Title            : English-SRT
  145. Language           : English
  146. Default            : Yes
  147. Forced           : Yes

  148. Text #2
  149. ID             : 8
  150. Format           : PGS
  151. Muxing mode          : zlib
  152. Codec ID           : S_HDMV/PGS
  153. Codec ID/Info          : Picture based subtitle format used on BDs/HD-DVDs
  154. Duration           : 1 h 32 min
  155. Bit rate           : 30.5 kb/s
  156. Count of elements        : 2778
  157. Stream size          : 20.1 MiB (0%)
  158. Title            : English-PGS
  159. Language           : English
  160. Default            : No
  161. Forced           : No

  162. Text #3
  163. ID             : 9
  164. Format           : PGS
  165. Muxing mode          : zlib
  166. Codec ID           : S_HDMV/PGS
  167. Codec ID/Info          : Picture based subtitle format used on BDs/HD-DVDs
  168. Duration           : 1 h 32 min
  169. Bit rate           : 28.8 kb/s
  170. Count of elements        : 2760
  171. Stream size          : 19.0 MiB (0%)
  172. Title            : Chinese-PGS
  173. Language           : Chinese
  174. Default            : No
  175. Forced           : No

  176. Menu
  177. 00:00:00.000         : en:Chapter 01
  178. 00:05:09.000         : en:Chapter 02
  179. 00:09:23.750         : en:Chapter 03
  180. 00:12:11.500         : en:Chapter 04
  181. 00:16:45.041         : en:Chapter 05
  182. 00:20:26.666         : en:Chapter 06
  183. 00:25:31.875         : en:Chapter 07
  184. 00:31:48.541         : en:Chapter 08
  185. 00:37:56.916         : en:Chapter 09
  186. 00:42:56.583         : en:Chapter 10
  187. 00:48:23.458         : en:Chapter 11
  188. 00:53:34.000         : en:Chapter 12
  189. 00:58:25.166         : en:Chapter 13
  190. 01:04:39.500         : en:Chapter 14
  191. 01:08:46.250         : en:Chapter 15
  192. 01:15:28.500         : en:Chapter 16
  193. 01:25:31.291         : en:Chapter 17
  194. 01:33:16.208         : en:Chapter 18
复制代码



反贪风暴4 P.Storm.2019.CHINESE.1080p.BluRay.REMUX.AVC.DTS-HD.MA.TrueHD.7.1.Atmos-FGT 20.64GB-2.png 反贪风暴4 P.Storm.2019.CHINESE.1080p.BluRay.REMUX.AVC.DTS-HD.MA.TrueHD.7.1.Atmos-FGT 20.64GB-3.png 反贪风暴4 P.Storm.2019.CHINESE.1080p.BluRay.REMUX.AVC.DTS-HD.MA.TrueHD.7.1.Atmos-FGT 20.64GB-4.png






回复

使用道具 举报

级别:普通观众 Lv.2

注册时间
2019-1-22
最后登录
2019-8-17
听众
13
收听
0
主题
0
蓝光币
11 枚
贡献
0 点
发表于 2019-7-1 13:07:43 | 显示全部楼层
楼主发贴辛苦了,谢谢楼主分享!我觉得中国高清电影网是注册对了!
回复

使用道具 举报

懒得打字嘛,点击右侧快捷回复 【右侧内容,后台自定义】
您需要登录后才可以回帖 登录 | 立即注册

本版积分规则

QQ|Archiver|手机版|小黑屋| 中国高清网 |网站地图

GMT+8, 2019-8-17 20:56 , Processed in 0.461074 second(s), 39 queries .

Powered by HDchina X3.4

Copyright 2017-2019©HDchina.All right reserved

返回顶部 联系我们