查看: 139|回复: 2

[剧情片] 天外横财/梅尔文与霍华德 Melvin.and.Howard.1980.720p.BluRay.x264-PSYCHD 5.46GB

[复制链接]

 成长值: 2580

级别:资源管理组

注册时间
2017-10-20
最后登录
2019-9-22
听众
1
收听
0
主题
83026
蓝光币
49846 枚
贡献
7354 点
发表于 2019-6-9 11:49:10 | 显示全部楼层 |阅读模式
天外横财/梅尔文与霍华德 Melvin.and.Howard.1980.720p.BluRay.x264-PSYCHD 5.46GB-1.png
- m- a' ^) ?6 b4 R6 a1 i/ D, n# \
译  名 天外横财 / 梅尔文与霍华德 / 梅尔文和霍华德  K. E% u2 W9 [7 z& F; Z7 M, Z( L, J
片  名 Melvin and Howard6 l5 C6 H+ C/ u. e+ T7 _# E
年  代 1980) M: h+ s& E, e5 A5 C: o/ N! P
产  地 美国
- u- H: N; |2 n4 l+ f0 l类  别 剧情 / 笑剧5 W# p: X$ y9 }( W, L
语  言 英语( P) ?; {, \$ d# {* }2 W7 t
上映日期 1980-09-19(美国)7 O8 u4 Q7 w" M8 }0 n* r
IMDb评分  6.9/10 from 3982 users
  C; Y' N$ |: BIMDb链接  http://www.imdb.com/title/tt0081150# G) }$ ^3 |8 r2 |/ h' m! b! D. t
豆瓣评分 0/10 from 0 users9 p9 e" w* e2 B% ?9 K4 G  k  q- m
豆瓣链接 https://movie.douban.com/subject/1300893/
3 s- F) S/ I& f: z1 P5 i片  长 95分钟
: @8 h2 A! [* K  k/ y! p导  演 乔纳森·戴米 Jonathan Demme9 f; r2 J* T  F
编  剧 博·古德曼 Bo Goldman2 _+ D; n( Z% ~
主  演 杰森·罗巴兹 Jason Robards
0 H, I: O8 Q2 W4 ~& U4 ~      保罗·勒马特 Paul Le Mat
* P+ P$ Y6 a3 Y: H+ C8 V( _+ d0 z      玛丽·斯汀伯根 Mary Steenburgen
! T+ q/ X2 U" o$ r$ ^      Elizabeth Cheshire; n! p- X' X) Y0 n& }7 Q
      Chip Taylor0 h# L5 X% i# d; X
      Melvin E. Dummar
# D$ s* E. k. m) q2 h      Michael J. Pollard
) v! n9 m* r6 v/ w$ w      Denise Galik
' \$ T4 q/ E$ X% f
4 F& W* r# }8 c, w. t, S% H. k; t/ ^. p" c0 p8 |' @
标  签 美国 | 笑剧 | 1980 | 美国电影 | 奥斯卡最好女配角 | 剧情 | 乔纳森·戴米 | MarySteenburgen
0 _% g3 H  P" S  T+ M9 u: K! ~/ r' Z
5 @' W. L( J* i- l5 d8 X& l0 x; ?简  介  $ n& q& D+ A2 y
  I: x: g: P# h/ Z( T/ v) r' [
  梅尔文·达默是个汽车加油站的工人,他心地善良,乐于助人,但却是个彻彻底底的失利者:背运,不切现实,还丢了工作,妻子也和他离了婚。一天早晨,梅尔文在公路上看到一个行动蹒跚、行动未便的老人,本来老人的摩托车出了故障,梅尔文便好心让他搭乘自己的汽车。老人宣称自己是霍华德·休斯,梅尔文听说过这本性情怪僻的豪富翁,但他对此并不相信,只是一笑置之。梅尔文将老人送到了拉斯维加斯,还将自己身上两角五分钱借给了他。梅尔文没有想到的是,霍华德·休斯立下了遗言,将一亿五千六百万美圆的财富留给了他。妻子也重新回到了他身旁。
) d' Y4 ~1 ]0 T2 r0 q8 j3 j3 s8 t* Q# U+ ?% }) A4 S' ~
获奖情况  , B5 ?4 E" |7 z$ L, ]7 U: m( j3 {1 V
. C$ a4 o- y" Y8 X
  第53届奥斯卡金像奖(1981)4 `  ?2 R& z, o/ Z( d
  最好男配角(提名) 杰森·罗巴兹
# s+ j& F3 b+ R4 N) R. }  最好女配角 玛丽·斯汀伯根& ]& {! a$ c2 @4 m4 J4 P) O
  最好原创剧本 博·古德曼6 j9 ?) Q- r& W) a% m. |2 L

" M" T7 R' i0 R. {/ f" g! \  第37届威尼斯电影节(1980)
% p1 k0 T% f& y! Q  主比赛单元 金狮奖 (提名) 乔纳森·戴米
; b8 ?* Z; K, Z. l* M
; H4 ?. X% h* P5 H+ c( T. o1 v$ x' ?( Y
" M% w+ ^. N1 i6 F" L
8 e6 u' J0 i. x! I; x# B( |! M
  1. Video
    6 z. \, `  y0 o) I# }+ ]3 e
  2. ID                                       : 1
    ( L6 m' ?3 D) f- L5 ]
  3. Format                                   : AVC  Y) S. Y' r: P2 `7 n, Q
  4. Format/Info                              : Advanced Video Codec, M7 ?) f- Z/ T0 z& w! j( F8 {; E4 J
  5. Format profile                           : <a href="/cdn-cgi/l/email-protection" class="__cf_email__" data-cfemail="c58daca2ad8589f1ebf4">[email protected]</a>( P; B/ Z( P, D7 ?9 M7 H
  6. Format settings                          : CABAC / 5 Ref Frames
    $ n/ J8 q, h* i3 c0 p0 p# ^' @
  7. Format settings, CABAC                   : Yes, s0 J4 H6 V4 y* K6 R# r1 \
  8. Format settings, ReFrames                : 5 frames/ d% m# \/ L) e5 ~$ k
  9. Codec ID                                 : V_MPEG4/ISO/AVC
    / U( U, V! j' z* G
  10. Duration                                 : 1 h 34 min, N2 Z! n! w+ e, i2 ?6 x0 U+ \; s- F
  11. Bit rate                                 : 6 747 kb/s
    9 C, m5 g# p( p
  12. Width                                    : 1 280 pixels: L( |0 w% [0 w! `7 F6 e4 }
  13. Height                                   : 696 pixels/ I; x2 {. c, L3 `! ]# k3 ]
  14. Display aspect ratio                     : 1.85:1/ j+ c; W# R' Y- J3 t7 k- t3 o8 }
  15. Frame rate mode                          : Constant1 @, ^8 h( M; o) A0 o- N
  16. Frame rate                               : 23.976 (24000/1001) FPS1 }/ Q8 ?4 j' I0 c: ~* ^' W
  17. Color space                              : YUV
    + P$ u( O: A2 N8 p
  18. Chroma subsampling                       : 4:2:0: p/ F; t0 L% R3 H# ~0 x2 z6 O" S
  19. Bit depth                                : 8 bits
    7 ~9 \! L4 |+ k; P1 X, k
  20. Scan type                                : Progressive! _# N8 j' Q* m3 A, [, y- r( \
  21. Bits/(Pixel*Frame)                       : 0.316
    ' }/ W* g. K! l; }' T) b4 Y
  22. Stream size                              : 4.46 GiB (82%): l- o+ F' M5 y' z; ~5 g
  23. Writing library                          : x264 core 157 r2970 5493be81 K1 G% y0 L# {5 W+ w
  24. Encoding settings                        : cabac=1 / ref=5 / deblock=1:-3:-3 / analyse=0x3:0x113 / me=umh / subme=8 / psy=1 / psy_rd=1.10:0.00 / mixed_ref=1 / me_range=24 / chroma_me=1 / trellis=2 / 8x8dct=1 / cqm=0 / deadzone=21,11 / fast_pskip=1 / chroma_qp_offset=-2 / threads=22 / lookahead_threads=3 / sliced_threads=0 / nr=0 / decimate=1 / interlaced=0 / bluray_compat=0 / constrained_intra=0 / bframes=3 / b_pyramid=2 / b_adapt=2 / b_bias=0 / direct=3 / weightb=1 / open_gop=0 / weightp=2 / keyint=240 / keyint_min=24 / scenecut=40 / intra_refresh=0 / rc_lookahead=50 / rc=2pass / mbtree=1 / bitrate=6747 / ratetol=1.0 / qcomp=0.60 / qpmin=0 / qpmax=69 / qpstep=4 / cplxblur=20.0 / qblur=0.5 / ip_ratio=1.40 / aq=3:0.70
    * u- F4 |( ~: l1 Q
  25. Default                                  : Yes
    1 ?# a# m3 u4 x( z9 g
  26. Forced                                   : No
    + M! d! ^9 m: e: i' N
  27. 4 F  S6 F# \* U" p  G. K6 M5 B
  28. Audio
    & K6 L' U! K+ h
  29. ID                                       : 25 g/ N) M4 s. B1 o$ n! D* L8 ~+ F
  30. Format                                   : DTS
    ! N3 N6 p$ w8 s& i9 h
  31. Format/Info                              : Digital Theater Systems
    5 Q( ~, G: g1 S$ B8 j
  32. Codec ID                                 : A_DTS2 D4 M$ L$ t$ n! L, D, l! c5 L
  33. Duration                                 : 1 h 34 min2 Y9 t- q: ?* s% o+ S
  34. Bit rate mode                            : Constant
    8 `9 a) B  E, Y
  35. Bit rate                                 : 1 509 kb/s
    ) P( ~1 f$ u& Z2 ^4 m
  36. Channel(s)                               : 2 channels
    + z" U" i/ v2 i3 j
  37. Channel layout                           : L R( ~5 w- }5 M$ z/ o% U- ]
  38. Sampling rate                            : 48.0 kHz
    3 I& C: W# Z1 J1 K( G0 A
  39. Frame rate                               : 93.750 FPS (512 SPF)9 Q5 M/ o2 {& M# O7 d6 x
  40. Bit depth                                : 24 bits' c5 t$ l% }! p! I& b1 ]0 X( \7 ^
  41. Compression mode                         : Lossy
    & E  o: u7 F8 B
  42. Stream size                              : 1 022 MiB (18%)
    # I+ [4 P# @, @/ }. M3 ]) `
  43. Language                                 : English5 ]+ k# |: \, a5 F) O
  44. Default                                  : Yes2 s7 Q' C' L2 q* Q
  45. Forced                                   : No
    % l0 Y6 ~  L8 ^* v' l

  46. 7 [% `& X4 @( s; Y  q3 n
  47. Text #11 {9 h/ M- Y) b+ [4 G
  48. ID                                       : 36 L! b0 b7 \$ _2 a
  49. Format                                   : UTF-85 X; n" J( r4 w- ^& K
  50. Codec ID                                 : S_TEXT/UTF8
    . [& a) A1 V* Q$ t- W( V
  51. Codec ID/Info                            : UTF-8 Plain Text+ W  b5 @5 v8 L* ~. K
  52. Duration                                 : 1 h 30 min; O+ T6 z! A: v
  53. Bit rate                                 : 66 b/s
    1 f( {+ I! D/ R% c6 o
  54. Count of elements                        : 11292 a" c( |1 @) ~( U
  55. Stream size                              : 44.2 KiB (0%). w& d* E- [$ M' `  N  l6 |
  56. Language                                 : English
    . U+ V7 ]  C+ `: x" D* ~8 N: _
  57. Default                                  : No% x7 Q+ y0 T# ]1 O  ^& Q
  58. Forced                                   : No
    ( x( e& n) n8 ~

  59. - G6 X: k- q3 O
  60. Text #2
    , ?% @' Q$ {0 e3 m2 l  h+ x
  61. ID                                       : 4) C6 J3 _( ^2 F# J+ Q
  62. Format                                   : UTF-81 R! V# O8 d( m
  63. Codec ID                                 : S_TEXT/UTF8% `( F, m3 U5 y  p2 `4 u1 x1 j
  64. Codec ID/Info                            : UTF-8 Plain Text# X) P, W4 }1 f0 y+ U* `; H
  65. Duration                                 : 1 h 31 min
    9 g& P& Z& }! b6 m; X/ X+ A
  66. Bit rate                                 : 74 b/s* r6 Y$ W; ^" o% S0 @) b# s! w
  67. Count of elements                        : 1249% I4 Y+ I/ ]  ~9 J- R
  68. Stream size                              : 49.7 KiB (0%)2 ~/ |1 P1 |' i8 T$ T
  69. Title                                    : SDH0 X- X5 f+ y+ G
  70. Language                                 : English
    9 z. k* `, |% m% s0 w2 w% @  F5 Q
  71. Default                                  : No6 s+ K7 R6 r# o
  72. Forced                                   : No
    - D; v+ q* I/ s2 Y

  73. 9 q: Z) X+ n( T
  74. Menu
    # G: i- }( }6 U7 A" h' k
  75. 00:00:00.000                             : en:Chapter 01
    + f6 H' ^1 I+ L1 y
  76. 00:03:58.905                             : en:Chapter 02
    , Z! @4 C% @  K
  77. 00:08:06.611                             : en:Chapter 03
    6 K# O3 L2 g8 ~& G
  78. 00:13:33.062                             : en:Chapter 04
    2 i& s$ s* E4 }8 x( }
  79. 00:15:33.975                             : en:Chapter 05& T- M1 l; U! I  \2 u* Q3 A5 R
  80. 00:17:20.873                             : en:Chapter 061 q5 M1 W6 s* F  v
  81. 00:19:29.335                             : en:Chapter 07+ x: z% C- {# l& i( p7 V
  82. 00:23:41.128                             : en:Chapter 08) g1 @; P9 O* Q1 f! i
  83. 00:26:10.152                             : en:Chapter 093 I" V+ M  q; f& ?1 s  s) R
  84. 00:30:16.565                             : en:Chapter 10( f9 R# p+ d$ J  h1 {
  85. 00:32:20.897                             : en:Chapter 11* l0 Q( R" w. e, w& t5 q0 b
  86. 00:36:17.884                             : en:Chapter 12
    0 s$ e$ g$ g5 P
  87. 00:41:45.294                             : en:Chapter 13! }8 U' X: l- H$ k
  88. 00:47:49.700                             : en:Chapter 14# ?, j+ ?1 G3 @3 ^# C1 `# J# R
  89. 00:55:02.007                             : en:Chapter 15
    . z; Z" }' K2 n9 c' k$ h
  90. 01:00:34.172                             : en:Chapter 16$ y( p6 S% S. V3 \! |$ r& X0 j
  91. 01:07:07.774                             : en:Chapter 176 |- Y3 @) V. ?- N
  92. 01:10:28.641                             : en:Chapter 18( s% B, W: b" Z$ o3 o: P
  93. 01:13:24.150                             : en:Chapter 19" k9 R( k# W8 D) J5 I. ^
  94. 01:16:21.619                             : en:Chapter 205 Y% k- D4 ?" z/ e3 X
  95. 01:19:11.121                             : en:Chapter 21% b2 }" ]+ G5 M% p; ~
  96. 01:21:30.969                             : en:Chapter 225 w9 ~& x4 `. [$ a4 x" O
  97. 01:26:09.581                             : en:Chapter 232 {! A8 P# Z5 w
  98. 01:31:11.633                             : en:Chapter 24
复制代码
: }% O; z- ~2 e/ Z
3 X% k8 \0 G5 r  e6 x1 O: @

1 k9 H6 C6 Q4 M& t: a: U2 k/ l+ y2 P: q; C3 n  E' _

; c0 ~; C/ P3 K, A+ _+ I" _2 G
. r. p$ O! n# n3 a# A) T
# U% [1 H1 S3 U7 ^- s. e# \4 e# E
9 j0 e8 z/ M$ Y) k6 f) W
VIP会员免费任意下载本站所有资源!---点击开通
回复

使用道具 举报

级别:荣升主角 Lv.5

注册时间
2019-2-3
最后登录
2019-9-21
听众
14
收听
0
主题
0
蓝光币
173 枚
贡献
0 点
发表于 2019-6-9 12:10:10 | 显示全部楼层
楼主发贴辛苦了,谢谢楼主分享!我觉得中国高清电影网是注册对了!
VIP会员免费任意下载本站所有资源!---点击开通
回复

使用道具 举报

级别:领衔主演 Lv.6

注册时间
2019-4-24
最后登录
2019-9-21
听众
13
收听
0
主题
0
蓝光币
111 枚
贡献
0 点
发表于 2019-6-12 08:24:50 | 显示全部楼层
& D( Z7 N; T  `2 s
楼主太厉害了!楼主,电影应该很好看我觉得中国高清电影网真是个好地方!
VIP会员免费任意下载本站所有资源!---点击开通
回复

使用道具 举报

懒得打字嘛,点击右侧快捷回复 【右侧内容,后台自定义】
您需要登录后才可以回帖 登录 | 立即注册

本版积分规则

QQ|Archiver|手机版|小黑屋| 中国高清网 |网站地图

GMT+8, 2019-9-22 03:56 , Processed in 0.310710 second(s), 41 queries .

Powered by HDchina X3.4

Copyright 2017-2019©HDchina.All right reserved

返回顶部 联系我们