查看: 368|回复: 6

[REMUX.HEVC] 第一滴血/兰博 Rambo.First.Blood.1982.2160p.BluRay.REMUX.HEVC.DTS-HD.MA.5.1-FGT 51.11GB

[复制链接]

 成长值: 2930

级别:资源管理组

注册时间
2017-10-20
最后登录
2019-10-24
听众
1
收听
0
主题
85436
蓝光币
56824 枚
贡献
9794 点
发表于 2018-11-8 22:24:49 | 显示全部楼层 |阅读模式
第一滴血/兰博 Rambo.First.Blood.1982.2160p.BluRay.REMUX.HEVC.DTS-HD.MA.5.1-FGT 51.11GB-1.jpg
◎译  名 第一滴血 / 兰博 / Rambo: First Blood
◎片  名 第一滴血 First Blood
◎年  代 1982
◎国  家 美国
◎类  别 剧情 / 行动 / 惊悚 / 冒险
◎语  言 英语
◎上映日期 1982-10-22
◎IMDb评分  7.7/10 from 195,640 users
◎IMDb链接  http://www.imdb.com/title/tt0083944/
◎豆瓣评分 8.2/10 from 49633 users
◎豆瓣链接 https://movie.douban.com/subject/1294323/
◎片  长 93 分钟
◎导  演 特德·科特切夫
◎主  演 西尔维斯特·史泰龙
      理查德·克里纳
      布莱恩·丹内利
      比尔·麦金尼
      杰克·斯塔瑞特

◎简  介 

  退伍甲士兰博(西尔维斯特?史泰龙Sylvester Stallone 饰)从越南返国,他回到已显得陌生的原居小镇,当地警长(布莱恩?丹内利 Brian Dennehy 饰)看到这个退伍甲士的第一眼起,就起头对兰博各式挑剔,甚至将他带回警局肆意欺侮,不胜忍受责打的兰博袭警以后逃窜。警长召集多量差人展开对兰博的追捕,兰博逃至荒山野林当中,不竭用自己在越战中把握的游击战术对差人展开还击,他抢劫了一辆兵器运输车返回小镇烧毁了商铺,法令和兵器都不能阻止兰博了。兰博在越战时的主座上校(理查德?克里纳 Richard Crenna  饰)出现,劝说兰博放下枪械,愤激已久的兰博吼出了自己的困惑与不甘……


  1. Video
  2. ID                                       : 1
  3. Format                                   : HEVC
  4. Format/Info                              : High Efficiency Video Coding
  5. Commercial name                          : HDR10
  6. Format profile                           : Main [url=/cdn-cgi/l/email-protection][email protected][/url]@High
  7. Codec ID                                 : V_MPEGH/ISO/HEVC
  8. Duration                                 : 1 h 33 min
  9. Bit rate                                 : 64.7 Mb/s
  10. Width                                    : 3 840 pixels
  11. Height                                   : 2 160 pixels
  12. Display aspect ratio                     : 16:9
  13. Frame rate mode                          : Constant
  14. Frame rate                               : 24.000 FPS
  15. Color space                              : YUV
  16. Chroma subsampling                       : 4:2:0 (Type 2)
  17. Bit depth                                : 10 bits
  18. Bits/(Pixel*Frame)                       : 0.325
  19. Stream size                              : 42.2 GiB (83%)
  20. Title                                    : Rambo.First.Blood.1982.2160p.BluRay.REMUX.HEVC.DTS-HD.MA.5.1-FGT
  21. Writing library                          : ATEME Titan File 3.8.22 (4.8.22.0)
  22. Default                                  : Yes
  23. Forced                                   : No
  24. Color range                              : Limited
  25. Color primaries                          : BT.2020
  26. Transfer characteristics                 : PQ
  27. Matrix coefficients                      : BT.2020 non-constant
  28. Mastering display color primaries        : Display P3
  29. Mastering display luminance              : min: 0.0001 cd/m2, max: 1000 cd/m2
  30. Maximum Content Light Level              : 479 cd/m2
  31. Maximum Frame-Average Light Level        : 433 cd/m2

  32. Audio #1
  33. ID                                       : 2
  34. Format                                   : DTS XLL
  35. Format/Info                              : Digital Theater Systems
  36. Commercial name                          : DTS-HD Master Audio
  37. Codec ID                                 : A_DTS
  38. Duration                                 : 1 h 33 min
  39. Bit rate mode                            : Variable
  40. Bit rate                                 : 3 407 kb/s
  41. Channel(s)                               : 6 channels
  42. Channel layout                           : C L R Ls Rs LFE
  43. Sampling rate                            : 48.0 kHz
  44. Frame rate                               : 93.750 FPS (512 SPF)
  45. Bit depth                                : 24 bits
  46. Compression mode                         : Lossless
  47. Stream size                              : 2.22 GiB (4%)
  48. Title                                    : Rambo.First.Blood.1982.2160p.BluRay.REMUX.HEVC.DTS-HD.MA.5.1-FGT
  49. Language                                 : English
  50. Default                                  : Yes
  51. Forced                                   : No

  52. Audio #2
  53. ID                                       : 3
  54. Format                                   : DTS XLL
  55. Format/Info                              : Digital Theater Systems
  56. Commercial name                          : DTS-HD Master Audio
  57. Codec ID                                 : A_DTS
  58. Duration                                 : 1 h 33 min
  59. Bit rate mode                            : Variable
  60. Bit rate                                 : 3 784 kb/s
  61. Channel(s)                               : 6 channels
  62. Channel layout                           : C L R Ls Rs LFE
  63. Sampling rate                            : 48.0 kHz
  64. Frame rate                               : 93.750 FPS (512 SPF)
  65. Bit depth                                : 24 bits
  66. Compression mode                         : Lossless
  67. Stream size                              : 2.47 GiB (5%)
  68. Title                                    : Rambo.First.Blood.1982.2160p.BluRay.REMUX.HEVC.DTS-HD.MA.5.1-FGT
  69. Language                                 : French
  70. Default                                  : No
  71. Forced                                   : No

  72. Audio #3
  73. ID                                       : 4
  74. Format                                   : DTS XLL
  75. Format/Info                              : Digital Theater Systems
  76. Commercial name                          : DTS-HD Master Audio
  77. Codec ID                                 : A_DTS
  78. Duration                                 : 1 h 33 min
  79. Bit rate mode                            : Variable
  80. Bit rate                                 : 4 286 kb/s
  81. Channel(s)                               : 6 channels
  82. Channel layout                           : C L R Ls Rs LFE
  83. Sampling rate                            : 48.0 kHz
  84. Frame rate                               : 93.750 FPS (512 SPF)
  85. Bit depth                                : 24 bits
  86. Compression mode                         : Lossless
  87. Stream size                              : 2.80 GiB (5%)
  88. Title                                    : Rambo.First.Blood.1982.2160p.BluRay.REMUX.HEVC.DTS-HD.MA.5.1-FGT
  89. Language                                 : German
  90. Default                                  : No
  91. Forced                                   : No

  92. Audio #4
  93. ID                                       : 5
  94. Format                                   : DTS XLL
  95. Format/Info                              : Digital Theater Systems
  96. Commercial name                          : DTS-HD Master Audio
  97. Codec ID                                 : A_DTS
  98. Duration                                 : 1 h 33 min
  99. Bit rate mode                            : Variable
  100. Bit rate                                 : 1 418 kb/s
  101. Channel(s)                               : 2 channels
  102. Channel layout                           : L R
  103. Sampling rate                            : 48.0 kHz
  104. Frame rate                               : 93.750 FPS (512 SPF)
  105. Bit depth                                : 24 bits
  106. Compression mode                         : Lossless
  107. Stream size                              : 948 MiB (2%)
  108. Title                                    : Rambo.First.Blood.1982.2160p.BluRay.REMUX.HEVC.DTS-HD.MA.5.1-FGT
  109. Language                                 : German
  110. Default                                  : No
  111. Forced                                   : No

  112. Audio #5
  113. ID                                       : 6
  114. Format                                   : DTS
  115. Format/Info                              : Digital Theater Systems
  116. Codec ID                                 : A_DTS
  117. Duration                                 : 1 h 33 min
  118. Bit rate mode                            : Constant
  119. Bit rate                                 : 318 kb/s
  120. Channel(s)                               : 2 channels
  121. Channel layout                           : L R
  122. Sampling rate                            : 48.0 kHz
  123. Frame rate                               : 93.750 FPS (512 SPF)
  124. Bit depth                                : 24 bits
  125. Compression mode                         : Lossy
  126. Stream size                              : 212 MiB (0%)
  127. Title                                    : Rambo.First.Blood.1982.2160p.BluRay.REMUX.HEVC.DTS-HD.MA.5.1-FGT
  128. Language                                 : English
  129. Default                                  : No
  130. Forced                                   : No

  131. Audio #6
  132. ID                                       : 7
  133. Format                                   : DTS
  134. Format/Info                              : Digital Theater Systems
  135. Codec ID                                 : A_DTS
  136. Duration                                 : 1 h 33 min
  137. Bit rate mode                            : Constant
  138. Bit rate                                 : 318 kb/s
  139. Channel(s)                               : 2 channels
  140. Channel layout                           : L R
  141. Sampling rate                            : 48.0 kHz
  142. Frame rate                               : 93.750 FPS (512 SPF)
  143. Bit depth                                : 24 bits
  144. Compression mode                         : Lossy
  145. Stream size                              : 212 MiB (0%)
  146. Title                                    : Rambo.First.Blood.1982.2160p.BluRay.REMUX.HEVC.DTS-HD.MA.5.1-FGT
  147. Language                                 : English
  148. Default                                  : No
  149. Forced                                   : No

  150. Text #1
  151. ID                                       : 8
  152. Format                                   : PGS
  153. Muxing mode                              : zlib
  154. Codec ID                                 : S_HDMV/PGS
  155. Codec ID/Info                            : Picture based subtitle format used on BDs/HD-DVDs
  156. Duration                                 : 1 h 30 min
  157. Bit rate                                 : 15.9 kb/s
  158. Count of elements                        : 1216
  159. Stream size                              : 10.3 MiB (0%)
  160. Title                                    : English-PGS
  161. Language                                 : English
  162. Default                                  : Yes
  163. Forced                                   : No

  164. Text #2
  165. ID                                       : 9
  166. Format                                   : PGS
  167. Muxing mode                              : zlib
  168. Codec ID                                 : S_HDMV/PGS
  169. Codec ID/Info                            : Picture based subtitle format used on BDs/HD-DVDs
  170. Duration                                 : 1 h 28 min
  171. Bit rate                                 : 18.7 kb/s
  172. Count of elements                        : 1374
  173. Stream size                              : 11.8 MiB (0%)
  174. Title                                    : German-PGS
  175. Language                                 : German
  176. Default                                  : No
  177. Forced                                   : No

  178. Text #3
  179. ID                                       : 10
  180. Format                                   : PGS
  181. Muxing mode                              : zlib
  182. Codec ID                                 : S_HDMV/PGS
  183. Codec ID/Info                            : Picture based subtitle format used on BDs/HD-DVDs
  184. Duration                                 : 1 h 32 min
  185. Bit rate                                 : 13.7 kb/s
  186. Count of elements                        : 1354
  187. Stream size                              : 9.05 MiB (0%)
  188. Title                                    : French-PGS
  189. Language                                 : French
  190. Default                                  : No
  191. Forced                                   : No

  192. Text #4
  193. ID                                       : 11
  194. Format                                   : PGS
  195. Muxing mode                              : zlib
  196. Codec ID                                 : S_HDMV/PGS
  197. Codec ID/Info                            : Picture based subtitle format used on BDs/HD-DVDs
  198. Duration                                 : 1 h 32 min
  199. Bit rate                                 : 42.2 kb/s
  200. Count of elements                        : 2602
  201. Stream size                              : 28.0 MiB (0%)
  202. Title                                    : German-PGS
  203. Language                                 : German
  204. Default                                  : No
  205. Forced                                   : No

  206. Text #5
  207. ID                                       : 12
  208. Format                                   : PGS
  209. Muxing mode                              : zlib
  210. Codec ID                                 : S_HDMV/PGS
  211. Codec ID/Info                            : Picture based subtitle format used on BDs/HD-DVDs
  212. Duration                                 : 1 h 32 min
  213. Bit rate                                 : 37.2 kb/s
  214. Count of elements                        : 2626
  215. Stream size                              : 24.7 MiB (0%)
  216. Title                                    : French-PGS
  217. Language                                 : French
  218. Default                                  : No
  219. Forced                                   : No

  220. Text #6
  221. ID                                       : 13
  222. Format                                   : PGS
  223. Muxing mode                              : zlib
  224. Codec ID                                 : S_HDMV/PGS
  225. Codec ID/Info                            : Picture based subtitle format used on BDs/HD-DVDs
  226. Duration                                 : 1 h 31 min
  227. Bit rate                                 : 49.1 kb/s
  228. Count of elements                        : 2896
  229. Stream size                              : 31.9 MiB (0%)
  230. Title                                    : German-FORCED-PGS
  231. Language                                 : German
  232. Default                                  : No
  233. Forced                                   : No

  234. Text #7
  235. ID                                       : 14
  236. Format                                   : PGS
  237. Muxing mode                              : zlib
  238. Codec ID                                 : S_HDMV/PGS
  239. Codec ID/Info                            : Picture based subtitle format used on BDs/HD-DVDs
  240. Duration                                 : 1 h 32 min
  241. Bit rate                                 : 43.6 kb/s
  242. Count of elements                        : 3126
  243. Stream size                              : 29.0 MiB (0%)
  244. Title                                    : French-FORCED-PGS
  245. Language                                 : French
  246. Default                                  : No
  247. Forced                                   : No

  248. Text #8
  249. ID                                       : 15
  250. Format                                   : PGS
  251. Muxing mode                              : zlib
  252. Codec ID                                 : S_HDMV/PGS
  253. Codec ID/Info                            : Picture based subtitle format used on BDs/HD-DVDs
  254. Duration                                 : 1 h 32 min
  255. Bit rate                                 : 29 b/s
  256. Count of elements                        : 4
  257. Stream size                              : 19.7 KiB (0%)
  258. Title                                    : French-FORCED-PGS
  259. Language                                 : French
  260. Default                                  : No
  261. Forced                                   : No

  262. Menu
  263. 00:00:00.000                             : :Chapter 1
  264. 00:10:13.166                             : :Chapter 2
  265. 00:20:49.208                             : :Chapter 3
  266. 00:30:31.416                             : :Chapter 4
  267. 00:38:40.833                             : :Chapter 5
  268. 00:47:38.625                             : :Chapter 6
  269. 00:56:32.708                             : :Chapter 7
  270. 01:06:07.125                             : :Chapter 8
  271. 01:16:08.583                             : :Chapter 9
  272. 01:24:46.166                             : :Chapter 10
复制代码

复制代码

第一滴血/兰博 Rambo.First.Blood.1982.2160p.BluRay.REMUX.HEVC.DTS-HD.MA.5.1-FGT 51.11GB-2.png 第一滴血/兰博 Rambo.First.Blood.1982.2160p.BluRay.REMUX.HEVC.DTS-HD.MA.5.1-FGT 51.11GB-3.png 第一滴血/兰博 Rambo.First.Blood.1982.2160p.BluRay.REMUX.HEVC.DTS-HD.MA.5.1-FGT 51.11GB-4.png





本帖隐藏的下载地址需要VIP会员才可阅读,您需要升级才可阅读,点击这里升级VIP

VIP会员免费任意下载本站所有资源!---点击开通
回复

使用道具 举报

级别:荣升主角 Lv.5

注册时间
2018-10-31
最后登录
2019-10-24
听众
14
收听
0
主题
0
蓝光币
1570 枚
贡献
0 点
QQ
发表于 2018-12-10 20:59:32 | 显示全部楼层
楼主发贴辛苦了,谢谢楼主分享!
VIP会员免费任意下载本站所有资源!---点击开通
回复

使用道具 举报

级别:群众演员 Lv.3

注册时间
2019-1-10
最后登录
2019-4-25
听众
9
收听
0
主题
0
蓝光币
89 枚
贡献
0 点
发表于 2019-1-10 11:25:14 | 显示全部楼层
楼主发贴辛苦了,谢谢楼主分享!我觉得中国高清电影网是注册对了!
VIP会员免费任意下载本站所有资源!---点击开通
回复

使用道具 举报

级别:初级观众 Lv.1

注册时间
2019-1-10
最后登录
2019-4-4
听众
8
收听
0
主题
0
蓝光币
1 枚
贡献
0 点
发表于 2019-1-10 12:39:52 | 显示全部楼层

这东西我收了!谢谢楼主!中国高清电影网真好!
VIP会员免费任意下载本站所有资源!---点击开通
回复

使用道具 举报

级别:初级观众 Lv.1

注册时间
2019-1-10
最后登录
2019-4-4
听众
8
收听
0
主题
0
蓝光币
1 枚
贡献
0 点
发表于 2019-1-10 12:40:29 | 显示全部楼层

楼主,大恩不言谢了!中国高清电影网是最棒的!
VIP会员免费任意下载本站所有资源!---点击开通
回复

使用道具 举报

级别:普通观众 Lv.2

注册时间
2019-9-28
最后登录
2019-10-23
听众
0
收听
0
主题
0
蓝光币
60 枚
贡献
0 点
发表于 2019-10-9 19:56:29 | 显示全部楼层
当年记忆中的第一部美国大片啊.
VIP会员免费任意下载本站所有资源!---点击开通
回复

使用道具 举报

 成长值: 5440

级别:尊贵的会员

注册时间
2018-11-10
最后登录
2019-10-24
听众
15
收听
0
主题
0
蓝光币
1073 枚
贡献
0 点
发表于 2019-10-10 12:46:15 | 显示全部楼层
这个是数码修复过的吗?之前看过720跟1080的,感觉清晰度没啥区别。
VIP会员免费任意下载本站所有资源!---点击开通
回复

使用道具 举报

懒得打字嘛,点击右侧快捷回复 【右侧内容,后台自定义】
您需要登录后才可以回帖 登录 | 立即注册

本版积分规则

QQ|Archiver|手机版|小黑屋| 中国高清网 |网站地图

GMT+8, 2019-10-24 07:08 , Processed in 0.433104 second(s), 40 queries .

Powered by HDchina X3.4

Copyright 2017-2019©HDchina.All right reserved

返回顶部 联系我们