查看: 992|回复: 9

[8bit.SDR] 速度与激情8/狂野时速8 The.Fate.of.the.Furious.2017.2160p.BluRay.x264.8bit.SDR.DTS-X.7.1-SWTYBLZ 27.96GB

[复制链接]

 成长值: 4200

级别:资源管理组

注册时间
2017-10-20
最后登录
2020-2-27
听众
1
收听
0
主题
92868
蓝光币
105004 枚
贡献
17230 点
发表于 2017-10-31 10:45:49 | 显示全部楼层 |阅读模式
135940xl3l0l70cz637z58.jpg
◎译  名 速度与豪情8 / 狂野时速8 / 玩命关头8 / 速激8 / 速8 / 速度8 / The Fast and the Furious 8 / Fast & Furious 8 / Fast Eight / Furious Eight / Furious 8 / Fast 8
◎片  名 速度与豪情8 The Fate of the Furious
◎年  代 2017
◎国  家 美国
◎类  别 行动 / 犯罪
◎语  言 英语
◎上映日期 2017-04-14(美国/中国大陆) / 2017-04-12(法国)
◎IMDb评分  6.8/10 from 137,150 users
◎IMDb链接  http://www.imdb.com/title/tt4630562/
◎豆瓣评分 7.1/10 from 179991 users
◎豆瓣链接 https://movie.douban.com/subject/26260853/
◎片  长 136分钟 / 149分钟(加长版)
◎导  演 F·加里·格雷
◎主  演 范·迪塞尔 Vin Diesel
      道恩·强森 Dwayne Johnson
      查理兹·塞隆 Charlize Theron
      杰森·斯坦森 Jason Statham
      米歇尔·罗德里格兹 Michelle Rodriguez
      泰瑞斯·吉布森 TyreseGBson
      卢达克里斯 Ludacris
      库尔特·拉塞尔 Kurt Russell
      娜塔莉·伊曼纽尔 Nathalie Emmanuel
      卢克·伊万斯 Luke Evans
      埃尔莎·帕塔奇 Elsa Pataky
      克里斯托弗·海维尤 Kristofer Hivju
      斯科特·伊斯特伍德 Scott Eastwood
      帕特里克·圣埃斯普利特 Patrick St. Esprit

◎简  介 

  多米尼克(范·迪塞尔 Vin Diesel 饰)与莱蒂(米歇尔·罗德里格兹 Michelle Rodriguez 饰)共度蜜月,布莱恩与米娅退出了赛车界,这支曾周游天下的顶级飞车家属队伍的生活正渐趋平平。但是,一位奥秘女子Cipher(查理兹·塞隆 Charlize T heron 饰)的出现,令全部队伍卷入信赖与变节的危机,面临史无前例的考验。




  1. Video
  2. ID                                       : 1
  3. Format                                   : AVC
  4. Format/Info                              : Advanced Video Codec
  5. Format profile                           : [url=mailto:High@L5.1]High@L5.1[/url]
  6. Format settings, CABAC                   : Yes
  7. Format settings, ReFrames                : 5 frames
  8. Codec ID                                 : V_MPEG4/ISO/AVC
  9. Duration                                 : 2 h 15 min
  10. Bit rate                                 : 25.2 Mb/s
  11. Width                                    : 3 840 pixels
  12. Height                                   : 1 608 pixels
  13. Display aspect ratio                     : 2.40:1
  14. Frame rate mode                          : Constant
  15. Frame rate                               : 23.976 (24000/1001) FPS
  16. Color space                              : YUV
  17. Chroma subsampling                       : 4:2:0
  18. Bit depth                                : 8 bits
  19. Scan type                                : Progressive
  20. Bits/(Pixel*Frame)                       : 0.170
  21. Stream size                              : 23.9GB (86%)
  22. Title                                    : The.Fate.of.the.Furious.2017.2160p.BluRay.x264.8bit.SDR.DTS-X.7.1-SWTYBLZ
  23. Writing library                          : x264 core 148 r2748 97eaef2
  24. Encoding settings                        : cabac=1 / ref=5 / deblock=1:-1:-1 / analyse=0x3:0x113 / me=umh / subme=10 / psy=1 / psy_rd=1.00:0.15 / mixed_ref=1 / me_range=48 / chroma_me=1 / trellis=2 / 8x8dct=1 / cqm=0 / deadzone=21,11 / fast_pskip=1 / chroma_qp_offset=-3 / threads=50 / lookahead_threads=4 / sliced_threads=0 / nr=0 / decimate=0 / interlaced=0 / bluray_compat=0 / constrained_intra=0 / bframes=3 / b_pyramid=2 / b_adapt=2 / b_bias=0 / direct=3 / weightb=1 / open_gop=0 / weightp=2 / keyint=250 / keyint_min=23 / scenecut=40 / intra_refresh=0 / rc_lookahead=50 / rc=crf / mbtree=1 / crf=18.0 / qcomp=0.60 / qpmin=0 / qpmax=69 / qpstep=4 / ip_ratio=1.40 / aq=1:1.00
  25. Language                                 : English
  26. Default                                  : Yes
  27. Forced                                   : No

  28. Audio #1
  29. ID                                       : 2
  30. Format                                   : DTS
  31. Format/Info                              : Digital Theater Systems
  32. Format profile                           : X / MA / Core
  33. Mode                                     : 16
  34. Format settings, Endianness              : Big
  35. Codec ID                                 : A_DTS
  36. Duration                                 : 2 h 15 min
  37. Bit rate mode                            : Variable / Variable / Constant
  38. Bit rate                                 : 3 348 kb/s / 3 348 kb/s / 1 509 kb/s
  39. Channel(s)                               : Object Based / 8 channels / 6 channels
  40. Channel positions                        : Object Based / Front: L C R, Side: L R, Back: L R, LFE / Front: L C R, Side: L R, LFE
  41. Sampling rate                            :  / 48.0 kHz / 48.0 kHz
  42. Frame rate                               : 93.750 FPS (512 spf)
  43. Bit depth                                :  / 24 bits / 24 bits
  44. Compression mode                         :  / Lossless / Lossy
  45. Stream size                              : 3.18GB (11%)
  46. Title                                    : The.Fate.of.the.Furious.2017.2160p.BluRay.x264.8bit.SDR.DTS-X.7.1-SWTYBLZ
  47. Language                                 : English
  48. Default                                  : Yes
  49. Forced                                   : No

  50. Audio #2
  51. ID                                       : 3
  52. Format                                   : AC-3
  53. Format/Info                              : Audio Coding 3
  54. Format settings, Endianness              : Big
  55. Codec ID                                 : A_AC3
  56. Duration                                 : 2 h 15 min
  57. Bit rate mode                            : Constant
  58. Bit rate                                 : 640 kb/s
  59. Channel(s)                               : 6 channels
  60. Channel positions                        : Front: L C R, Side: L R, LFE
  61. Sampling rate                            : 48.0 kHz
  62. Frame rate                               : 31.250 FPS (1536 spf)
  63. Bit depth                                : 16 bits
  64. Compression mode                         : Lossy
  65. Stream size                              : 622 MiB (2%)
  66. Title                                    : The.Fate.of.the.Furious.2017.2160p.BluRay.x264.8bit.SDR.DTS-X.7.1-SWTYBLZ
  67. Language                                 : English
  68. Service kind                             : Complete Main
  69. Default                                  : No
  70. Forced                                   : No

  71. Text #1
  72. ID                                       : 4
  73. Format                                   : UTF-8
  74. Codec ID                                 : S_TEXT/UTF8
  75. Codec ID/Info                            : UTF-8 Plain Text
  76. Duration                                 : 2 h 3 min
  77. Bit rate                                 : 51 b/s
  78. Count of elements                        : 1516
  79. Stream size                              : 47.0 KiB (0%)
  80. Title                                    : English-SRT
  81. Language                                 : English
  82. Default                                  : Yes
  83. Forced                                   : No

  84. Text #2
  85. ID                                       : 5
  86. Format                                   : PGS
  87. Muxing mode                              : zlib
  88. Codec ID                                 : S_HDMV/PGS
  89. Codec ID/Info                            : Picture based subtitle format used on BDs/HD-DVDs
  90. Duration                                 : 2 h 4 min
  91. Bit rate                                 : 39.6 kb/s
  92. Count of elements                        : 3568
  93. Stream size                              : 35.1 MiB (0%)
  94. Title                                    : English-PGS
  95. Language                                 : English
  96. Default                                  : No
  97. Forced                                   : No

  98. Text #3
  99. ID                                       : 6
  100. Format                                   : PGS
  101. Muxing mode                              : zlib
  102. Codec ID                                 : S_HDMV/PGS
  103. Codec ID/Info                            : Picture based subtitle format used on BDs/HD-DVDs
  104. Duration                                 : 2 h 14 min
  105. Bit rate                                 : 29.5 kb/s
  106. Count of elements                        : 3056
  107. Stream size                              : 28.5 MiB (0%)
  108. Title                                    : Spanish-PGS
  109. Language                                 : Spanish
  110. Default                                  : No
  111. Forced                                   : No

  112. Text #4
  113. ID                                       : 7
  114. Format                                   : PGS
  115. Muxing mode                              : zlib
  116. Codec ID                                 : S_HDMV/PGS
  117. Codec ID/Info                            : Picture based subtitle format used on BDs/HD-DVDs
  118. Duration                                 : 2 h 14 min
  119. Bit rate                                 : 29.6 kb/s
  120. Count of elements                        : 3072
  121. Stream size                              : 28.5 MiB (0%)
  122. Title                                    : French-PGS
  123. Language                                 : French
  124. Default                                  : No
  125. Forced                                   : No

  126. Menu
  127. 00:00:00.000                             : en:Chapter 1
  128. 00:13:09.914                             : en:Chapter 2
  129. 00:20:31.772                             : en:Chapter 3
  130. 00:26:39.639                             : en:Chapter 4
  131. 00:32:27.779                             : en:Chapter 5
  132. 00:36:41.574                             : en:Chapter 6
  133. 00:43:36.614                             : en:Chapter 7
  134. 00:47:46.780                             : en:Chapter 8
  135. 00:56:01.733                             : en:Chapter 9
  136. 01:04:09.303                             : en:Chapter 10
  137. 01:09:09.061                             : en:Chapter 11
  138. 01:13:25.275                             : en:Chapter 12
  139. 01:21:26.715                             : en:Chapter 13
  140. 01:29:30.948                             : en:Chapter 14
  141. 01:35:13.457                             : en:Chapter 15
  142. 01:39:56.782                             : en:Chapter 16
  143. 01:45:01.712                             : en:Chapter 17
  144. 01:53:02.859                             : en:Chapter 18
  145. 02:01:52.263                             : en:Chapter 19
  146. 02:06:46.098                             : en:Chapter 20

复制代码

135941mrzsfruotifew682.png 135941z1sgo9j1hsebz19a.png 135941y5o3rhvruu2yrgbh.png 135942fixna7xzw0pkt1a7.png 135942m1do7vc27ovobjz6.png 135942zdnwab288qwwdwwn.png

                                                                                                

本帖隐藏的下载地址需要VIP会员才可阅读,您需要升级才可阅读,点击这里升级VIP

回复

使用道具 举报

级别:初级观众 Lv.1

注册时间
2019-10-26
最后登录
2019-12-14
听众
1
收听
0
主题
0
蓝光币
4 枚
贡献
0 点
发表于 2019-12-14 23:05:42 | 显示全部楼层

楼主太厉害了!楼主,电影应该很好看我觉得中国高清电影网真是个好地方!
回复

使用道具 举报

级别:初级观众 Lv.1

注册时间
2019-11-24
最后登录
2020-2-14
听众
1
收听
0
主题
0
蓝光币
6 枚
贡献
0 点
发表于 2019-12-25 20:12:10 | 显示全部楼层

能下载么,好多都屏蔽了
回复

使用道具 举报

级别:初级观众 Lv.1

注册时间
2019-12-28
最后登录
2019-12-28
听众
1
收听
0
主题
0
蓝光币
0 枚
贡献
0 点
QQ
发表于 2019-12-28 20:42:38 | 显示全部楼层
能下载么,好多都屏蔽了
回复

使用道具 举报

 成长值: 4200

级别:资源管理组

注册时间
2017-10-20
最后登录
2020-2-27
听众
1
收听
0
主题
92868
蓝光币
105004 枚
贡献
17230 点
 楼主| 发表于 2019-12-28 22:10:37 | 显示全部楼层
vivizhang 发表于 2019-12-28 20:42
能下载么,好多都屏蔽了

你下载工具的问题
回复

使用道具 举报

级别:群众演员 Lv.3

注册时间
2019-11-17
最后登录
2020-2-27
听众
1
收听
0
主题
0
蓝光币
118 枚
贡献
0 点
发表于 2019-12-29 22:59:28 | 显示全部楼层
这个好像很不错哦,感谢楼主的分享
回复

使用道具 举报

级别:初级观众 Lv.1

注册时间
2020-1-19
最后登录
2020-1-19
听众
1
收听
0
主题
0
蓝光币
0 枚
贡献
0 点
发表于 2020-1-19 11:22:13 | 显示全部楼层
试试吧试试吧试试吧试试吧试试吧试试吧试试吧
回复

使用道具 举报

级别:初级观众 Lv.1

注册时间
2020-1-19
最后登录
2020-1-19
听众
1
收听
0
主题
0
蓝光币
0 枚
贡献
0 点
发表于 2020-1-19 11:30:01 | 显示全部楼层
灌水封号灌水封号灌水封号灌水封号灌水封号
回复

使用道具 举报

 成长值: 4200

级别:资源管理组

注册时间
2017-10-20
最后登录
2020-2-27
听众
1
收听
0
主题
92868
蓝光币
105004 枚
贡献
17230 点
 楼主| 发表于 2020-2-14 16:26:29 | 显示全部楼层
决策者jcz 发表于 2019-12-25 20:12
能下载么,好多都屏蔽了

基本可以下载,是你下载工具的问题
回复

使用道具 举报

级别:群众演员 Lv.3

注册时间
2019-3-21
最后登录
2020-2-26
听众
9
收听
0
主题
0
蓝光币
58 枚
贡献
0 点
发表于 2020-2-14 20:03:06 | 显示全部楼层
楼主发贴辛苦了,谢谢楼主分享!我觉得中国高清电影网是注册对了!
回复

使用道具 举报

懒得打字嘛,点击右侧快捷回复 【右侧内容,后台自定义】
您需要登录后才可以回帖 登录 | 立即注册

本版积分规则

Archiver|手机版|小黑屋| 中国高清网 |网站地图

GMT+8, 2020-2-27 12:45 , Processed in 0.187740 second(s), 38 queries .

Powered by HDchina X3.4

Copyright 2017-2019©HDchina.All right reserved

返回顶部 联系我们