查看: 39|回复: 0

[国产剧] 马大帅3 [全34集][国语中字].Ma.Da.Shuai.2006.S03.480p.WEB-DL.H265.AAC-TAG 4.47GB

[复制链接]
蓝光币
256094 枚
发表于 3 天前 | 显示全部楼层 |阅读模式
马大帅3 [全34集][国语中字].Ma.Da.Shuai.2006.S03.480p.WEB-DL.H265.AAC-TAG 4.47GB-1.jpg

◎译  名 马大帅3
◎片  名 马大帅III
◎年  代 2006
◎产  地 中国大陆
◎类  别 笑剧 / 家庭
◎语  言 汉语普通话
◎上映日期 2006-01-29(中国大陆)
◎豆瓣评分 8/10 from 6,355 users
◎豆瓣链接 https://movie.douban.com/subject/4044821/
◎集  数 34
◎导  演 赵本山 / Benshan Zhao
◎演  员 赵本山 / Benshan Zhao
      孟真 / Zhen Meng (饰 马小翠)
      范伟 / Wei Fan
      王雅捷 / Yajie Wang
      赵钢 / Gang Zhao
      于月仙 / Yuexian Yu
      刘玲辉 / Linghui Liu (饰 裴倩)
      王永会 / Yonghui Wang (饰 刘姐老同学)
      老臭 / Chou Lao (饰 强子)
      张小飞 / Xiaofei Zhang
      闫光亮 / Guangming Yan
      刘流 / Liu Liu
      唐鉴军 / Jianjun Tang
      金玫玫 / Meimei Jin
      王晓曦 / Xiaoxi Wang
      赵丹 / Dan Zhao (饰 婷婷)
      关婷娜 / Tingna Guan
      王亚彬 / Yabin Wang
◎编  剧 白铁军 / Tiejun Bai
◎其  它 张小光 / Xiaoguang Zhang
      刘玲辉 / Linghui Liu

◎简  介 

  黉舍没了,马大帅(赵本山 饰)自然也就没了工作,可是生活仍要继续,为了保持生存,马大帅觅了一份替高层修建擦玻璃的危险工作,瞒着玉芬(王雅捷 饰),做起了“蜘蛛人”,天天将自己的人命悬于那一根细细的钢索之上。与此同时,玉芬亦进入了冷饮厂就职,由此碰见了名为小唐(唐鉴军 饰)的男人,哪晓得小唐喜好上了成熟稳重的玉芬,就此惹出了一段使人啼笑皆非的荒谬故事。
  范德彪(范伟 饰 )这回听说找了一份端庄的工作,镜头跟从着他来到一间小医院,本来他是当上了医托。一场意外中,马大帅在工作中砸碎了玻璃,将老板和老板的小蜜也牵扯了进来。马大帅和范德彪这两个诸事不顺的大老爷们,活泼的向我们诠释了什么叫生命在于折腾。

  1. General
  2. Complete name : Ma.Da.Shuai.2006.S03E01.480p.WEB-DL.H265.AAC-TAG.mp4
  3. Format : MPEG-4
  4. Format profile : Base Media
  5. Codec ID : isom (isom/iso2/mp41)
  6. File size : 134 MiB
  7. Duration : 47 min 29 s
  8. Overall bit rate mode : Variable
  9. Overall bit rate : 394 kb/s
  10. Frame rate : 25.000 FPS
  11. Recorded date : 2022-01-08 21:58:26.0078621+08:00
  12. Writing application : Lavf58.32.104

  13. Video
  14. ID : 1
  15. Format : HEVC
  16. Format/Info : High Efficiency Video Coding
  17. Format profile : Main@L3@Main
  18. Codec ID : hev1
  19. Codec ID/Info : High Efficiency Video Coding
  20. Duration : 47 min 29 s
  21. Bit rate : 325 kb/s
  22. Width : 896 pixels
  23. Height : 520 pixels
  24. Display aspect ratio : 1.723
  25. Frame rate mode : Constant
  26. Frame rate : 25.000 FPS
  27. Color space : YUV
  28. Chroma subsampling : 4:2:0
  29. Bit depth : 8 bits
  30. Bits/(Pixel*Frame) : 0.028
  31. Stream size : 110 MiB (83%)
  32. Codec configuration box : hvcC

  33. Audio
  34. ID : 2
  35. Format : AAC LC
  36. Format/Info : Advanced Audio Codec Low Complexity
  37. Codec ID : mp4a-40-2
  38. Duration : 47 min 29 s
  39. Bit rate mode : Variable
  40. Bit rate : 62.1 kb/s
  41. Maximum bit rate : 63.4 kb/s
  42. Channel(s) : 2 channels
  43. Channel layout : L R
  44. Sampling rate : 44.1 kHz
  45. Frame rate : 43.066 FPS (1024 SPF)
  46. Compression mode : Lossy
  47. Stream size : 21.1 MiB (16%)
  48. Default : Yes
  49. Alternate group : 1
复制代码
马大帅3 [全34集][国语中字].Ma.Da.Shuai.2006.S03.480p.WEB-DL.H265.AAC-TAG 4.47GB-2.jpg
马大帅3 [全34集][国语中字].Ma.Da.Shuai.2006.S03.480p.WEB-DL.H265.AAC-TAG 4.47GB-3.jpg
马大帅3 [全34集][国语中字].Ma.Da.Shuai.2006.S03.480p.WEB-DL.H265.AAC-TAG 4.47GB-4.jpg





马大帅3.Ma.Da.Shuai.2006.S03.480p.WEB-DL.H265.AAC-TAG.torrent (26.09 KB, 下载次数: 3)

温馨提醒:新种保举请利用qBittorrent,utorrent,transmission等标准BT软件下载!以获得最快速度。请大师下载完成后不要封闭下载软件 进献出自己的上传带宽 人报酬我 我为大家!
回复

使用道具 举报

懒得打字嘛,点击右侧快捷回复 【右侧内容,后台自定义】
您需要登录后才可以回帖 登录 | 立即注册

本版积分规则

Archiver|手机版|小黑屋| 中国高清网  |网站地图

GMT+8, 2024-7-13 20:11 , Processed in 0.398504 second(s), 28 queries .

Powered by HDchina X3.4

Copyright 2017-2019©HDchina.All right reserved

返回顶部 联系我们