查看: 25|回复: 0

[国产剧] 马大帅2 [全30集][国语中字].Ma.Da.Shuai.2005.S02.WEB-DL.1080p.HEVC.AAC-TAG 9.23GB

[复制链接]
蓝光币
256094 枚
发表于 3 天前 | 显示全部楼层 |阅读模式
马大帅2 [全30集][国语中字].Ma.Da.Shuai.2005.S02.WEB-DL.1080p.HEVC.AAC-TAG 9.23GB-1.jpg
◎译  名 马大帅2
◎片  名 马大帅Ⅱ
◎年  代 2005
◎产  地 中国大陆
◎类  别 笑剧 / 家庭
◎语  言 汉语普通话
◎上映日期 2005-02-07(中国大陆)
◎豆瓣评分 6.7/10 from 6126 users
◎豆瓣链接 https://movie.douban.com/subject/4043850/
◎集  数 30
◎导  演 赵本山 Benshan Zhao
◎编  剧 白铁军 Tiejun Bai
◎主  演 赵本山 Benshan Zhao
       安好 Jing Ning
       范伟 Wei Fan
       艾敬 Jing Ai
       孟真 Zhen Meng
       赵钢 Gang Zhao
       汪萍 Ping Wong
       关婷娜 Tingna Guan
       于月仙 Yuexian Yu
       王晓曦 Xiaoxi Wang
       闫光亮 Guangming Yan
       邓小林 Xiaolin Deng
       安守书 Shoushu An
       刘玲辉 Linghui Liu

◎简  介

  玉芬(艾敬 饰)的表妹李萍(安好 饰)是一位小学教师,马大帅(赵本山 饰)设立的“大帅打工子弟黉舍”行将面临被拆迁的命运,在自在撰稿人王彬(王平 饰)的帮助下,黉舍总算保住,不但如此,李萍还跳槽成为了黉舍中的一位教师。
  由于王彬的夸大宣传,给外界形成了马大帅的黉舍免费开放的误解,一时候,黉舍人满为患,开支也急剧增加。为了保持黉舍的运作,马大帅几近倾尽了一切的财力,玉芬和马大帅之间是以发生了冲突。范德彪(范伟 饰)亦在和桂英(高明娥 饰)大吵一架后离家出走,来到了马大帅的黉舍食堂工作。玉芬怀孕了,孩子的父亲是她的前夫牛二,做了流产手术后,是范德彪一向经心的顾问着她,为她守旧这个奥秘,没想到却令偶然目击此景的马大帅发生了误解。

  1. General
  2. Complete name : 马大帅2.Ma.Da.Shuai.2005.S02E01.WEB-DL.1080p.HEVC.AAC-TAG.mp4
  3. Format : MPEG-4
  4. Format profile : Base Media
  5. Codec ID : isom (isom/iso2/mp41)
  6. File size : 206 MiB
  7. Duration : 45 min 45 s
  8. Overall bit rate mode : Variable
  9. Overall bit rate : 630 kb/s
  10. Frame rate : 25.000 FPS
  11. Writing application : Lavf59.16.100
  12. Video
  13. ID : 1
  14. Format : HEVC
  15. Format/Info : High Efficiency Video Coding
  16. Format profile : Main@L4@Main
  17. Codec ID : hev1
  18. Codec ID/Info : High Efficiency Video Coding
  19. Duration : 45 min 45 s
  20. Source duration : 45 min 44 s
  21. Bit rate : 530 kb/s
  22. Width : 1 440 pixels
  23. Height : 1 080 pixels
  24. Display aspect ratio : 4:3
  25. Frame rate mode : Variable
  26. Frame rate : 25.000 FPS
  27. Minimum frame rate : 24.951 FPS
  28. Maximum frame rate : 25.049 FPS
  29. Color space : YUV
  30. Chroma subsampling : 4:2:0
  31. Bit depth : 8 bits
  32. Bits/(Pixel*Frame) : 0.014
  33. Stream size : 173 MiB (84%)
  34. Source stream size : 173 MiB (84%)
  35. Codec configuration box : hvcC
  36. Audio
  37. ID : 2
  38. Format : AAC LC
  39. Format/Info : Advanced Audio Codec Low Complexity
  40. Codec ID : mp4a-40-2
  41. Duration : 45 min 45 s
  42. Bit rate mode : Variable
  43. Bit rate : 93.4 kb/s
  44. Maximum bit rate : 97.0 kb/s
  45. Channel(s) : 2 channels
  46. Channel layout : L R
  47. Sampling rate : 48.0 kHz
  48. Frame rate : 46.875 FPS (1024 SPF)
  49. Compression mode : Lossy
  50. Stream size : 30.6 MiB (15%)
  51. Default : Yes
  52. Alternate group : 1
复制代码
马大帅2 [全30集][国语中字].Ma.Da.Shuai.2005.S02.WEB-DL.1080p.HEVC.AAC-TAG 9.23GB-2.jpg
马大帅2 [全30集][国语中字].Ma.Da.Shuai.2005.S02.WEB-DL.1080p.HEVC.AAC-TAG 9.23GB-3.jpg
马大帅2 [全30集][国语中字].Ma.Da.Shuai.2005.S02.WEB-DL.1080p.HEVC.AAC-TAG 9.23GB-4.jpg





本帖隐藏的下载地址需要VIP会员才可阅读,您需要升级才可阅读,点击这里升级VIP


温馨提醒:新种保举请利用qBittorrent,utorrent,transmission等标准BT软件下载!以获得最快速度。请大师下载完成后不要封闭下载软件 进献出自己的上传带宽 人报酬我 我为大家!
回复

使用道具 举报

懒得打字嘛,点击右侧快捷回复 【右侧内容,后台自定义】
您需要登录后才可以回帖 登录 | 立即注册

本版积分规则

Archiver|手机版|小黑屋| 中国高清网  |网站地图

GMT+8, 2024-7-13 20:03 , Processed in 0.395823 second(s), 28 queries .

Powered by HDchina X3.4

Copyright 2017-2019©HDchina.All right reserved

返回顶部 联系我们