查看: 29|回复: 0

[喜剧片] 九二神雕之痴心情长剑 [国语 中文字幕].Saviour.of.the.Soul.II.1992.WEB-DL.4K.H265.AAC-TAG 5.07GB

[复制链接]
蓝光币
256102 枚
发表于 4 天前 | 显示全部楼层 |阅读模式
九二神雕之痴心情长剑 [国语 中笔墨幕].Saviour.of.the.Soul.II.1992.WEB-DL.4K.H265.AAC-TAG 5.07GB-1.jpg
◎译  名 九二神雕之痴心情长剑 / 新神雕侠侣2(台) / 奥秘情侠 / Saviour Of The Soul 2 / Saviour of the Soul II
◎片  名 九二神鵰之痴心情長劍
◎年  代 1992
◎产  地 中国香港
◎类  别 笑剧 / 恋爱 / 奇异 / 武侠
◎语  言 粤语
◎上映日期 1992-09-03(中国香港)
◎IMDb评星  ★★★★★☆☆☆☆☆
◎IMDb评分  4.9/10 from 197 users
◎IMDb链接  https://www.imdb.com/title/tt0104560/
◎豆瓣评星 ★★★☆☆
◎豆瓣评分 6.0/10 from 6,273 users
◎豆瓣链接 https://movie.douban.com/subject/1437554/
◎片  长 92 分钟
◎导  演 元奎 / Corey Yuen
      黎大炜 / David Lai
◎演  员 刘德华 / Andy Lau
      关之琳 / Rosamund Kwan
      元奎 / Corey Yuen
      吴耀汉 / Richard Ng
      关淑怡 / Shirley Kwan
      飞鸟珠美 / Asuka Tamami
      江苗定 / Miu Ting Kong
◎编  剧 陈嘉上 / Gordon Chan
      叶广俭 / Kwong Kim Yip
      陈建忠 / John Chan Kin-Chung
◎制  片  人 陈佩华 / Jessica Chan Pooi-Wa
      陈惠中 / Wai-Chung Chan
      刘德华 / Andy Lau
◎摄  影 黄仲标 / Bill Wong
◎美  术 冯瑞莲 / Shui-Lin Fung
◎其  它 罗礼贤 / Bruce Law

◎简  介 

  风骚大侠遑仁(刘德华 饰)与师父(元奎 饰)、小师弟生活在一路,他常在梦中与一位女子(关之琳 饰)相见,他一心想找到这位令他颠三倒四的美男。
  这时辰魔王(吴耀汉 饰)约请江湖中人前往雪山帮手去玉女寒冰。遑仁发现被藏在冰中的女子正是自己的梦中情人,他一心想庇护自己的爱人——姑姑不让魔王抓走,可是旅店馆主路比(关淑怡 饰)不甘自己喜好的逞仁喜好上了他人,便告诉了魔王逞仁的行迹。
  逞仁在与魔王决战的时辰被魔王打伤后重伤灭亡,姑姑便吧自己的真气传给了逞仁,逞仁虽然复活了,魔王却抓走了姑姑……

◎幕后揭秘

  九一年出品的《新神雕侠侣》,撷取了武侠片与日本漫画的范例拿手,以惊人的美术结果和天马行空的故事构想,拍出了一部超时空感受的新派武侠行动片。这部续集由原班人马再度合作,导演由元奎与黎大炜担任,编剧则由王家卫换成陈嘉上等人,气概比上集加倍漫画化,但落空了本来的灵气。不外全片外景在雪窖冰天的加拿大拍摄,映象很是可观。

  1. General
  2. Complete name : Saviour of the Soul II 1992 WEB-DL 4K H265 AAC-TAG.mp4
  3. Format : MPEG-4
  4. Format profile : Base Media
  5. Codec ID : isom (isom/iso2/mp41)
  6. File size : 5.07 GiB
  7. Duration : 1 h 24 min
  8. Overall bit rate mode : Variable
  9. Overall bit rate : 8 603 kb/s
  10. Writing application : Lavf58.30.100

  11. Video
  12. ID : 1
  13. Format : HEVC
  14. Format/Info : High Efficiency Video Coding
  15. Format profile : Main@L5@Main
  16. Codec ID : hev1
  17. Codec ID/Info : High Efficiency Video Coding
  18. Duration : 1 h 24 min
  19. Bit rate : 8 405 kb/s
  20. Width : 3 840 pixels
  21. Height : 2 160 pixels
  22. Display aspect ratio : 16:9
  23. Frame rate mode : Constant
  24. Frame rate : 25.000 FPS
  25. Color space : YUV
  26. Chroma subsampling : 4:2:0
  27. Bit depth : 8 bits
  28. Bits/(Pixel*Frame) : 0.041
  29. Stream size : 4.95 GiB (98%)
  30. Color range : Limited
  31. Color primaries : BT.709
  32. Transfer characteristics : BT.709
  33. Matrix coefficients : BT.709
  34. Codec configuration box : hvcC

  35. Audio
  36. ID : 2
  37. Format : AAC LC
  38. Format/Info : Advanced Audio Codec Low Complexity
  39. Codec ID : mp4a-40-2
  40. Duration : 1 h 24 min
  41. Bit rate mode : Variable
  42. Bit rate : 192 kb/s
  43. Channel(s) : 2 channels
  44. Channel layout : L R
  45. Sampling rate : 44.1 kHz
  46. Frame rate : 43.066 FPS (1024 SPF)
  47. Compression mode : Lossy
  48. Stream size : 114 MiB (2%)
  49. Default : Yes
  50. Alternate group : 1
复制代码
九二神雕之痴心情长剑 [国语 中笔墨幕].Saviour.of.the.Soul.II.1992.WEB-DL.4K.H265.AAC-TAG 5.07GB-2.png
九二神雕之痴心情长剑 [国语 中笔墨幕].Saviour.of.the.Soul.II.1992.WEB-DL.4K.H265.AAC-TAG 5.07GB-3.png
九二神雕之痴心情长剑 [国语 中笔墨幕].Saviour.of.the.Soul.II.1992.WEB-DL.4K.H265.AAC-TAG 5.07GB-4.png





九二神雕之痴心情长剑 [国语 中笔墨幕].Saviour.of.the.Soul.II.1992.WEB-DL.4K.H265..torrent (26.4 KB, 下载次数: 8)

温馨提醒:新种保举请利用qBittorrent,utorrent,transmission等标准BT软件下载!以获得最快速度。请大师下载完成后不要封闭下载软件 进献出自己的上传带宽 人报酬我 我为大家!
回复

使用道具 举报

懒得打字嘛,点击右侧快捷回复 【右侧内容,后台自定义】
您需要登录后才可以回帖 登录 | 立即注册

本版积分规则

Archiver|手机版|小黑屋| 中国高清网  |网站地图

GMT+8, 2024-7-13 21:22 , Processed in 0.369587 second(s), 28 queries .

Powered by HDchina X3.4

Copyright 2017-2019©HDchina.All right reserved

返回顶部 联系我们