查看: 42|回复: 0

[美剧] 黑帆 全四季 [38集][BDRip版][内含外挂ass格式简英双语字幕]Black.Sails.S01-04.1080p.BluRay.x264.DTS-WiKi 265.63GB

[复制链接]
蓝光币
256096 枚
发表于 4 天前 | 显示全部楼层 |阅读模式
黑帆 全四时 [38集][BDRip版][内含外挂ass格式简英双语字幕]Black.Sails.S01-04.1080p.BluRay.x264.DTS-WiKi 265.63GB-1.jpg
黑帆 全四时 [38集][BDRip版][内含外挂ass格式简英双语字幕]Black.Sails.S01-04.1080p.BluRay.x264.DTS-WiKi 265.63GB-2.jpg
黑帆 全四时 [38集][BDRip版][内含外挂ass格式简英双语字幕]Black.Sails.S01-04.1080p.BluRay.x264.DTS-WiKi 265.63GB-3.jpg
黑帆 全四时 [38集][BDRip版][内含外挂ass格式简英双语字幕]Black.Sails.S01-04.1080p.BluRay.x264.DTS-WiKi 265.63GB-4.jpg
黑帆 全四时 [38集][BDRip版][内含外挂ass格式简英双语字幕]Black.Sails.S01-04.1080p.BluRay.x264.DTS-WiKi 265.63GB-5.jpg

黑帆 第四时 Black Sails Season 4
导演: 史蒂夫·博伊姆 / 埃里克·萨哈罗夫 / 乌塔·布里兹维茨 / 罗伊·雷内 / 马克·乔博斯特
编剧: 罗伯特·莱文 / 乔纳森·E·斯坦伯格
主演: 托比·斯蒂芬斯 / 卢克·阿诺德 / 汉娜·纽 / 杰西卡·帕克·肯尼迪 / 托比·施密茨 等
范例: 剧情 / 冒险
制片国家/地域: 美国
说话: 英语
首播: 2017-01-29(美国)
季数: 4
集数: 10
单集片长: 56分钟

该剧是典范小说《金银岛》(Treasure Island)的前传,故事发生在小说时候的「20年之前」,那时Flint船主(Toby Stephens)和他的「Walrus号」尚未成名。该剧将在南非开普敦拍摄,初步定于2014年播出(填补《斯巴达克斯》三部曲终结后的空档),首季为8集。Flint是文学史上最著名海盗脚色之一,也是海盗黄金时代的代表人物。他和一些人在新普罗维登斯岛上建立了被称为“海盗天堂”的无政府社区,并为保持新普罗维登斯的存在而与各类敌对势力交兵。在这个罪犯的避风港里,除了来自五湖四海的海盗外,还有五花八门的妓女、强盗、小偷和寻宝客。Hannah New饰演美丽、勇敢、自傲的酒馆老板娘Eleanor,黑白两道都很熟。她一方面帮助卑贱的海盗销赃,另一方面也为有钱有势的头面人物举行舞会。Zach McGowan饰演Charles Vane船主,是Flint船主的合作对手。Luke Arnold饰演传闻中的著名海员John Silver,但他那时和Flint一样没著名望。来自《秘社》的Jessica Parker Kennedy饰演一个遭到熬煎的年轻妓女,是新普罗维登斯岛黑暗面的见证人。Mark Ryan饰演Flint船主的得力助手Gates。

Starz旗下电视剧《黑帆》在第四时迎来剧终,第四时共有10集,2017年播出。《黑帆》是Starz第一部跨越三季的电视剧,不外随着《权欲》获得了第四、五季的预定,这个曾将的记录已经被打破。

  1. General
  2. Unique ID : 234830201166554490583199253342883819231 (0xB0AAA6D10C3541F19818916F7FE22EDF)
  3. Complete name : Black.Sails.S01E01.I.1080p.BluRay.x264.DTS-WiKi.mkv
  4. Format : Matroska
  5. Format version : Version 4 / Version 2
  6. File size : 8.12 GiB
  7. Duration : 1 h 5 min
  8. Overall bit rate : 17.9 Mb/s
  9. Encoded date : UTC 2017-07-14 07:39:21
  10. Writing application : mkvmerge v8.2.0 ('World of Adventure') 64bit
  11. Writing library : libebml v1.3.1 + libmatroska v1.4.2

  12. Video
  13. ID : 1
  14. Format : AVC
  15. Format/Info : Advanced Video Codec
  16. Format profile : [email]High@L4.1[/email]
  17. Format settings : CABAC / 4 Ref Frames
  18. Format settings, CABAC : Yes
  19. Format settings, ReFrames : 4 frames
  20. Codec ID : V_MPEG4/ISO/AVC
  21. Duration : 1 h 5 min
  22. Bit rate : 17.1 Mb/s
  23. Width : 1 920 pixels
  24. Height : 1 080 pixels
  25. Display aspect ratio : 16:9
  26. Frame rate mode : Constant
  27. Frame rate : 23.976 (24000/1001) FPS
  28. Color space : YUV
  29. Chroma subsampling : 4:2:0
  30. Bit depth : 8 bits
  31. Scan type : Progressive
  32. Bits/(Pixel*Frame) : 0.344
  33. Stream size : 7.77 GiB (96%)
  34. Writing library : x264 core 148 r2762+56 6284cf3 t_mod_Custom [8-bit@all X86_64]
  35. Encoding settings : cabac=1 / ref=4 / deblock=1:-3:-3 / analyse=0x3:0x133 / me=umh / subme=11 / psy=1 / fade_compensate=0.00 / psy_rd=1.05:0.00 / mixed_ref=1 / me_range=32 / chroma_me=1 / trellis=2 / 8x8dct=1 / cqm=0 / deadzone=21,11 / fast_pskip=0 / chroma_qp_offset=-2 / threads=6 / lookahead_threads=1 / sliced_threads=0 / nr=0 / decimate=1 / interlaced=0 / bluray_compat=0 / constrained_intra=0 / fgo=0 / bframes=8 / b_pyramid=2 / b_adapt=2 / b_bias=0 / direct=3 / weightb=1 / open_gop=0 / weightp=2 / keyint=250 / keyint_min=23 / scenecut=40 / intra_refresh=0 / rc=crf / mbtree=0 / crf=17.9000 / qcomp=0.65 / qpmin=0:0:0 / qpmax=69:69:69 / qpstep=4 / ip_ratio=1.40 / pb_ratio=1.30 / aq=1:0.75 / aq-sensitivity=10.00 / aq-factor=1.00:1.00:1.00 / aq2=0 / aq3=0
  36. Default : Yes
  37. Forced : No
  38. Color range : Limited
  39. Matrix coefficients : BT.709

  40. Audio
  41. ID : 2
  42. Format : DTS
  43. Format/Info : Digital Theater Systems
  44. Codec ID : A_DTS
  45. Duration : 1 h 5 min
  46. Bit rate mode : Constant
  47. Bit rate : 768 kb/s
  48. Channel(s) : 6 channels
  49. Channel positions : Front: L C R, Side: L R, LFE
  50. Sampling rate : 48.0 kHz
  51. Frame rate : 93.750 FPS (512 SPF)
  52. Bit depth : 24 bits
  53. Compression mode : Lossy
  54. Stream size : 357 MiB (4%)
  55. Language : English
  56. Default : Yes
  57. Forced : No

  58. Menu
  59. 00:00:00.000 : en:00:00:00.000
  60. 00:08:28.091 : en:00:08:28.091
  61. 00:24:06.445 : en:00:24:06.445
  62. 00:35:47.604 : en:00:35:47.604
  63. 00:48:39.291 : en:00:48:39.291
复制代码
黑帆 全四时 [38集][BDRip版][内含外挂ass格式简英双语字幕]Black.Sails.S01-04.1080p.BluRay.x264.DTS-WiKi 265.63GB-6.jpg






本帖隐藏的下载地址需要VIP会员才可阅读,您需要升级才可阅读,点击这里升级VIP


温馨提醒:新种保举请利用qBittorrent,utorrent,transmission等标准BT软件下载!以获得最快速度。请大师下载完成后不要封闭下载软件 进献出自己的上传带宽 人报酬我 我为大家!
回复

使用道具 举报

懒得打字嘛,点击右侧快捷回复 【右侧内容,后台自定义】
您需要登录后才可以回帖 登录 | 立即注册

本版积分规则

Archiver|手机版|小黑屋| 中国高清网  |网站地图

GMT+8, 2024-7-13 20:41 , Processed in 0.435582 second(s), 28 queries .

Powered by HDchina X3.4

Copyright 2017-2019©HDchina.All right reserved

返回顶部 联系我们