查看: 54|回复: 1

[台剧] 谁是被害者 第二季 [全8集][国语中字].The.Victims.Game.S02.2020.2160p.NF.WEB-DL.DDP5.1.H.265-TAG 50.55GB

[复制链接]
蓝光币
256102 枚
发表于 2024-7-5 11:34:17 | 显示全部楼层 |阅读模式
谁是被害者 第二季 [全8集][国语中字].The.Victims.Game.S02.2020.2160p.NF.WEB-DL.DDP5.1.H.265-TAG 50.55GB-1.jpg

* 片    名   谁是被害者 第二季
* 又    名   谁是被害者2
* 分    类   TVSeries
* 制    片   中国台湾
* 类    型   悬疑 / 犯罪
* 语    言   汉语普通话
* 时    长   60分钟
* 首    映   2024-06-21
* 季    数   2
* 集    数   8
* IMDB    https://www.imdb.com/title/tt32574402/
* 豆    瓣   https://movie.douban.com/subject/35208511/
* 导    演   庄绚维 Hsuan Wei Chuang
                 陈冠仲 Allen Chen

* 编    剧   陈承佑
                 梁舒婷 Shu-Ting Liang
                 徐瑞良 Jui-Liang Hsu
                 黄雨佳 Yu-chia Huang

* 主    演   张孝全 Joseph Chang
                 许玮甯 Wei-Ning Hsu
                 王识贤 Jason Wang
                 苏慧伦 Tarcy Su
                 藤冈靛 Tatsuo Dean Fujioka
                 李沐 Moon Lee
                 刘俊谦 Terrance Lau
                 曾敬骅 Jing-Hua Tseng
                 陈妍霏 Buffy Chen
                 刘子铨 Tzu-Chuan Liu
                 张再兴 Tsai-Hsing Chang
                 喜翔 Hsiang Hsi
                 林恺伦 Karencici
                 蔡思韵 Cecilia Choi

* 剧    情   
   
             前观察员方毅任(张孝全饰)与记者身世的公关司理徐海茵(许玮甯饰)带着女儿江晓孟(李赛凤饰)起头了新的生活。但是,方毅任却卷入了一系列灭亡事务,成为头号怀疑人。这些事务与他 15 年前接手的一路谋杀案有关。检察官张耿浩(藤冈靛饰)思疑方毅任和他的导师林景瑞有所隐瞒。方毅任与探长赵承宽(王识贤饰)和法医薛欣宁(苏慧伦饰)合作,揭开真相,证实自己的明净,否则他将面临再次与江晓孟关系破裂的风险。

  1. General
  2. Unique ID : 216116366376204784231575987418808787493 (0xA2967F869A0BA093E5069D57D66D2225)
  3. Complete name : The.Victims.Game.S02E03.2020.2160p.NF.WEB-DL.DDP5.1.H.265-TAG.mkv
  4. Format : Matroska
  5. Format version : Version 4
  6. File size : 6.67 GiB
  7. Duration : 56 min 43 s
  8. Overall bit rate : 16.8 Mb/s
  9. Frame rate : 24.000 FPS
  10. Writing application : mkvmerge v79.0 (\'Funeral Pyres\') 64-bit
  11. Writing library : libebml v1.4.4 + libmatroska v1.7.1

  12. Video
  13. ID : 1
  14. Format : HEVC
  15. Format/Info : High Efficiency Video Coding
  16. Format profile : Main 10@L5@Main
  17. Codec ID : V_MPEGH/ISO/HEVC
  18. Duration : 56 min 43 s
  19. Bit rate : 15.6 Mb/s
  20. Width : 3 840 pixels
  21. Height : 2 160 pixels
  22. Display aspect ratio : 16:9
  23. Frame rate mode : Constant
  24. Frame rate : 24.000 FPS
  25. Color space : YUV
  26. Chroma subsampling : 4:2:0
  27. Bit depth : 10 bits
  28. Bits/(Pixel*Frame) : 0.078
  29. Stream size : 6.16 GiB (92%)
  30. Default : Yes
  31. Forced : No
  32. Color range : Limited
  33. Color primaries : BT.709
  34. Transfer characteristics : BT.709
  35. Matrix coefficients : BT.709

  36. Audio #1
  37. ID : 2
  38. Format : E-AC-3
  39. Format/Info : Enhanced AC-3
  40. Commercial name : Dolby Digital Plus
  41. Codec ID : A_EAC3
  42. Duration : 56 min 43 s
  43. Bit rate mode : Constant
  44. Bit rate : 640 kb/s
  45. Channel(s) : 6 channels
  46. Channel layout : L R C LFE Ls Rs
  47. Sampling rate : 48.0 kHz
  48. Frame rate : 31.250 FPS (1536 SPF)
  49. Compression mode : Lossy
  50. Stream size : 260 MiB (4%)
  51. Title : 中文 [Dolby Digital Plus 5.1]
  52. Language : Chinese
  53. Service kind : Complete Main
  54. Default : Yes
  55. Forced : No

  56. Audio #2
  57. ID : 3
  58. Format : E-AC-3
  59. Format/Info : Enhanced AC-3
  60. Commercial name : Dolby Digital Plus
  61. Codec ID : A_EAC3
  62. Duration : 56 min 43 s
  63. Bit rate mode : Constant
  64. Bit rate : 640 kb/s
  65. Channel(s) : 6 channels
  66. Channel layout : L R C LFE Ls Rs
  67. Sampling rate : 48.0 kHz
  68. Frame rate : 31.250 FPS (1536 SPF)
  69. Compression mode : Lossy
  70. Stream size : 260 MiB (4%)
  71. Title : Chinese (Taiwan) [Dolby Digital Plus 5.1]
  72. Language : Chinese
  73. Service kind : Complete Main
  74. Default : No
  75. Forced : No

  76. Text #1
  77. ID : 4
  78. Format : UTF-8
  79. Codec ID : S_TEXT/UTF8
  80. Codec ID/Info : UTF-8 Plain Text
  81. Duration : 52 min 11 s
  82. Bit rate : 41 b/s
  83. Frame rate : 0.181 FPS
  84. Count of elements : 566
  85. Stream size : 15.9 KiB (0%)
  86. Title : 中文(简体)
  87. Language : Chinese
  88. Default : Yes
  89. Forced : No

  90. Text #2
  91. ID : 5
  92. Format : UTF-8
  93. Codec ID : S_TEXT/UTF8
  94. Codec ID/Info : UTF-8 Plain Text
  95. Duration : 52 min 11 s
  96. Bit rate : 41 b/s
  97. Frame rate : 0.178 FPS
  98. Count of elements : 557
  99. Stream size : 15.7 KiB (0%)
  100. Title : 中文 (繁體)
  101. Language : Chinese
  102. Default : No
  103. Forced : No

  104. Text #3
  105. ID : 6
  106. Format : UTF-8
  107. Codec ID : S_TEXT/UTF8
  108. Codec ID/Info : UTF-8 Plain Text
  109. Duration : 56 min 23 s
  110. Bit rate : 71 b/s
  111. Frame rate : 0.168 FPS
  112. Count of elements : 569
  113. Stream size : 29.6 KiB (0%)
  114. Title : العربية
  115. Language : Arabic
  116. Default : No
  117. Forced : No

  118. Text #4
  119. ID : 7
  120. Format : UTF-8
  121. Codec ID : S_TEXT/UTF8
  122. Codec ID/Info : UTF-8 Plain Text
  123. Duration : 56 min 23 s
  124. Bit rate : 39 b/s
  125. Frame rate : 0.168 FPS
  126. Count of elements : 568
  127. Stream size : 16.4 KiB (0%)
  128. Title : Dansk
  129. Language : Danish
  130. Default : No
  131. Forced : No

  132. Text #5
  133. ID : 8
  134. Format : UTF-8
  135. Codec ID : S_TEXT/UTF8
  136. Codec ID/Info : UTF-8 Plain Text
  137. Duration : 56 min 23 s
  138. Bit rate : 40 b/s
  139. Frame rate : 0.168 FPS
  140. Count of elements : 568
  141. Stream size : 16.8 KiB (0%)
  142. Title : Deutsch
  143. Language : German
  144. Default : No
  145. Forced : No

  146. Text #6
  147. ID : 9
  148. Format : UTF-8
  149. Codec ID : S_TEXT/UTF8
  150. Codec ID/Info : UTF-8 Plain Text
  151. Duration : 56 min 23 s
  152. Bit rate : 69 b/s
  153. Frame rate : 0.168 FPS
  154. Count of elements : 569
  155. Stream size : 28.9 KiB (0%)
  156. Title : Ελληνικά
  157. Language : Greek
  158. Default : No
  159. Forced : No

  160. Text #7
  161. ID : 10
  162. Format : UTF-8
  163. Codec ID : S_TEXT/UTF8
  164. Codec ID/Info : UTF-8 Plain Text
  165. Duration : 56 min 23 s
  166. Bit rate : 45 b/s
  167. Frame rate : 0.167 FPS
  168. Count of elements : 566
  169. Stream size : 18.8 KiB (0%)
  170. Title : English
  171. Language : English
  172. Default : No
  173. Forced : No

  174. Text #8
  175. ID : 11
  176. Format : UTF-8
  177. Codec ID : S_TEXT/UTF8
  178. Codec ID/Info : UTF-8 Plain Text
  179. Duration : 56 min 23 s
  180. Bit rate : 40 b/s
  181. Frame rate : 0.168 FPS
  182. Count of elements : 569
  183. Stream size : 16.7 KiB (0%)
  184. Title : Español
  185. Language : Spanish
  186. Default : No
  187. Forced : No

  188. Text #9
  189. ID : 12
  190. Format : UTF-8
  191. Codec ID : S_TEXT/UTF8
  192. Codec ID/Info : UTF-8 Plain Text
  193. Duration : 56 min 23 s
  194. Bit rate : 40 b/s
  195. Frame rate : 0.168 FPS
  196. Count of elements : 568
  197. Stream size : 16.7 KiB (0%)
  198. Title : Español (España)
  199. Language : Spanish
  200. Default : No
  201. Forced : No

  202. Text #10
  203. ID : 13
  204. Format : UTF-8
  205. Codec ID : S_TEXT/UTF8
  206. Codec ID/Info : UTF-8 Plain Text
  207. Duration : 56 min 23 s
  208. Bit rate : 40 b/s
  209. Frame rate : 0.167 FPS
  210. Count of elements : 564
  211. Stream size : 16.8 KiB (0%)
  212. Title : Suomi
  213. Language : Finnish
  214. Default : No
  215. Forced : No

  216. Text #11
  217. ID : 14
  218. Format : UTF-8
  219. Codec ID : S_TEXT/UTF8
  220. Codec ID/Info : UTF-8 Plain Text
  221. Duration : 56 min 23 s
  222. Bit rate : 38 b/s
  223. Frame rate : 0.167 FPS
  224. Count of elements : 566
  225. Stream size : 15.9 KiB (0%)
  226. Title : Français
  227. Language : French
  228. Default : No
  229. Forced : No

  230. Text #12
  231. ID : 15
  232. Format : UTF-8
  233. Codec ID : S_TEXT/UTF8
  234. Codec ID/Info : UTF-8 Plain Text
  235. Duration : 56 min 23 s
  236. Bit rate : 64 b/s
  237. Frame rate : 0.168 FPS
  238. Count of elements : 569
  239. Stream size : 26.7 KiB (0%)
  240. Title : עברית
  241. Language : Hebrew
  242. Default : No
  243. Forced : No

  244. Text #13
  245. ID : 16
  246. Format : UTF-8
  247. Codec ID : S_TEXT/UTF8
  248. Codec ID/Info : UTF-8 Plain Text
  249. Duration : 56 min 23 s
  250. Bit rate : 40 b/s
  251. Frame rate : 0.168 FPS
  252. Count of elements : 568
  253. Stream size : 16.7 KiB (0%)
  254. Title : Bahasa Indonesia
  255. Language : Indonesian
  256. Default : No
  257. Forced : No

  258. Text #14
  259. ID : 17
  260. Format : UTF-8
  261. Codec ID : S_TEXT/UTF8
  262. Codec ID/Info : UTF-8 Plain Text
  263. Duration : 56 min 23 s
  264. Bit rate : 39 b/s
  265. Frame rate : 0.168 FPS
  266. Count of elements : 568
  267. Stream size : 16.2 KiB (0%)
  268. Title : Italiano
  269. Language : Italian
  270. Default : No
  271. Forced : No

  272. Text #15
  273. ID : 18
  274. Format : UTF-8
  275. Codec ID : S_TEXT/UTF8
  276. Codec ID/Info : UTF-8 Plain Text
  277. Duration : 56 min 23 s
  278. Bit rate : 35 b/s
  279. Frame rate : 0.150 FPS
  280. Count of elements : 506
  281. Stream size : 14.6 KiB (0%)
  282. Title : 日本語
  283. Language : Japanese
  284. Default : No
  285. Forced : No

  286. Text #16
  287. ID : 19
  288. Format : UTF-8
  289. Codec ID : S_TEXT/UTF8
  290. Codec ID/Info : UTF-8 Plain Text
  291. Duration : 56 min 23 s
  292. Bit rate : 43 b/s
  293. Frame rate : 0.168 FPS
  294. Count of elements : 569
  295. Stream size : 18.1 KiB (0%)
  296. Title : 한국어
  297. Language : Korean
  298. Default : No
  299. Forced : No

  300. Text #17
  301. ID : 20
  302. Format : UTF-8
  303. Codec ID : S_TEXT/UTF8
  304. Codec ID/Info : UTF-8 Plain Text
  305. Duration : 56 min 23 s
  306. Bit rate : 39 b/s
  307. Frame rate : 0.168 FPS
  308. Count of elements : 567
  309. Stream size : 16.2 KiB (0%)
  310. Title : Nederlands
  311. Language : Dutch
  312. Default : No
  313. Forced : No

  314. Text #18
  315. ID : 21
  316. Format : UTF-8
  317. Codec ID : S_TEXT/UTF8
  318. Codec ID/Info : UTF-8 Plain Text
  319. Duration : 56 min 23 s
  320. Bit rate : 39 b/s
  321. Frame rate : 0.168 FPS
  322. Count of elements : 568
  323. Stream size : 16.3 KiB (0%)
  324. Title : Polski
  325. Language : Polish
  326. Default : No
  327. Forced : No

  328. Text #19
  329. ID : 22
  330. Format : UTF-8
  331. Codec ID : S_TEXT/UTF8
  332. Codec ID/Info : UTF-8 Plain Text
  333. Duration : 56 min 23 s
  334. Bit rate : 39 b/s
  335. Frame rate : 0.168 FPS
  336. Count of elements : 568
  337. Stream size : 16.3 KiB (0%)
  338. Title : Português
  339. Language : Portuguese
  340. Default : No
  341. Forced : No

  342. Text #20
  343. ID : 23
  344. Format : UTF-8
  345. Codec ID : S_TEXT/UTF8
  346. Codec ID/Info : UTF-8 Plain Text
  347. Duration : 56 min 23 s
  348. Bit rate : 40 b/s
  349. Frame rate : 0.168 FPS
  350. Count of elements : 569
  351. Stream size : 16.5 KiB (0%)
  352. Title : Português (Brasil)
  353. Language : Portuguese
  354. Default : No
  355. Forced : No

  356. Text #21
  357. ID : 24
  358. Format : UTF-8
  359. Codec ID : S_TEXT/UTF8
  360. Codec ID/Info : UTF-8 Plain Text
  361. Duration : 56 min 23 s
  362. Bit rate : 43 b/s
  363. Frame rate : 0.168 FPS
  364. Count of elements : 569
  365. Stream size : 17.9 KiB (0%)
  366. Title : Română
  367. Language : Romanian
  368. Default : No
  369. Forced : No

  370. Text #22
  371. ID : 25
  372. Format : UTF-8
  373. Codec ID : S_TEXT/UTF8
  374. Codec ID/Info : UTF-8 Plain Text
  375. Duration : 56 min 23 s
  376. Bit rate : 41 b/s
  377. Frame rate : 0.168 FPS
  378. Count of elements : 568
  379. Stream size : 17.2 KiB (0%)
  380. Title : Svenska
  381. Language : Swedish
  382. Default : No
  383. Forced : No

  384. Text #23
  385. ID : 26
  386. Format : UTF-8
  387. Codec ID : S_TEXT/UTF8
  388. Codec ID/Info : UTF-8 Plain Text
  389. Duration : 56 min 23 s
  390. Bit rate : 106 b/s
  391. Frame rate : 0.168 FPS
  392. Count of elements : 569
  393. Stream size : 43.8 KiB (0%)
  394. Title : ไทย
  395. Language : Thai
  396. Default : No
  397. Forced : No

  398. Text #24
  399. ID : 27
  400. Format : UTF-8
  401. Codec ID : S_TEXT/UTF8
  402. Codec ID/Info : UTF-8 Plain Text
  403. Duration : 56 min 23 s
  404. Bit rate : 42 b/s
  405. Frame rate : 0.168 FPS
  406. Count of elements : 568
  407. Stream size : 17.4 KiB (0%)
  408. Title : Türkçe
  409. Language : Turkish
  410. Default : No
  411. Forced : No

  412. Text #25
  413. ID : 28
  414. Format : UTF-8
  415. Codec ID : S_TEXT/UTF8
  416. Codec ID/Info : UTF-8 Plain Text
  417. Duration : 56 min 23 s
  418. Bit rate : 53 b/s
  419. Frame rate : 0.168 FPS
  420. Count of elements : 569
  421. Stream size : 21.9 KiB (0%)
  422. Title : Tiếng Việt
  423. Language : Vietnamese
  424. Default : No
  425. Forced : No

  426. Menu
  427. 00:00:00.000 : en:Part 01
  428. 00:05:33.000 : en:Intro
  429. 00:06:39.000 : en:Part 02
  430. 00:52:37.000 : en:Credits
复制代码
谁是被害者 第二季 [全8集][国语中字].The.Victims.Game.S02.2020.2160p.NF.WEB-DL.DDP5.1.H.265-TAG 50.55GB-2.jpg





本帖隐藏的下载地址需要VIP会员才可阅读,您需要升级才可阅读,点击这里升级VIP


温馨提醒:新种保举请利用qBittorrent,utorrent,transmission等标准BT软件下载!以获得最快速度。请大师下载完成后不要封闭下载软件 进献出自己的上传带宽 人报酬我 我为大家!
回复

使用道具 举报

蓝光币
411 枚
发表于 3 天前 | 显示全部楼层
看看有什么电影,感谢分享
回复

使用道具 举报

懒得打字嘛,点击右侧快捷回复 【右侧内容,后台自定义】
您需要登录后才可以回帖 登录 | 立即注册

本版积分规则

Archiver|手机版|小黑屋| 中国高清网  |网站地图

GMT+8, 2024-7-13 21:14 , Processed in 0.414241 second(s), 28 queries .

Powered by HDchina X3.4

Copyright 2017-2019©HDchina.All right reserved

返回顶部 联系我们