查看: 96|回复: 1

[港剧] 神雕侠侣 [全50集][国语中字][刘德华版本].The.Return.of.the.Condor.Heroes.1983.S01.WEB-DL.2160p.HEVC.AAC-TAG 25.57GB

[复制链接]
蓝光币
256100 枚
发表于 2024-7-5 11:22:54 | 显示全部楼层 |阅读模式
神雕侠侣 [全50集][国语中字][刘德华版本].The.Return.of.the.Condor.Heroes.1983.S01.WEB-DL.2160p.HEVC.AAC-TAG 25.57GB-1.jpg
◎译  名 神雕侠侣/The Return of the Condor Heroes
◎片  名 神雕俠侶
◎年  代 1983
◎产  地 中国香港
◎类  别 剧情 / 行动 / 恋爱
◎语  言 粤语
◎上映日期 1983-10-31(中国香港)
◎IMDb评分  8.5/10 from 339 users
◎IMDb链接  https://www.imdb.com/title/tt0287704/
◎豆瓣评分 8.0/10 from 7290 users
◎豆瓣链接 https://movie.douban.com/subject/1790860/
◎集  数 50
◎片  长 42分钟
◎导  演 萧笙 Sang Siu / 范秀明 Sau-Ming Fan / 鞠觉亮 Kok Leung Kuk / 萧显辉 Hin-Fai Siu / 谭锐铭 Yui-Ming Tam
◎编  剧 韦家辉 Ka-Fai Wai / 梁志明 Jimmy Leung / 赵志坚 Chi-Kin Chiu / 梁咏梅 Yongmei Liang / 胡沙 Sha Hu / 金庸 Louis Cha / 张炎江 Jim-sang Cheung / 司徒立光 Lap-Kwong Szeto
◎主  演 刘德华 Andy Lau
       陈玉莲 Idy Chan
       梁家仁 Ka-Yan Leung
       欧阳佩珊 Puishan Auyeung
       廖安丽 Annie Liu On-Lai
       吕有慧 Yau-wai Lui
       曾江 Kenneth Tsang
       吴镇宇 Francis Ng
       吴孟达 Man Tat Ng
       任达华 Simon Yam
       刘嘉玲 Carina Lau
       元华 Wah Yuen
       万梓良 Alex Man
       许绍雄 Siu-Hung Hui
       罗兰 Lan Law
       高雄 Eddy Ko
       汤镇业 Ken Tong
       骆应钧 Ying Kwan Lok
       石坚 Kien Shih
       刘丹 Tan Lau
       秦煌 Wong Chun
       刘兆铭 Lau Siu Ming
       艾威 Wei Ai
       江毅 Ai Kong
       陈欣健 Philip Chan
       黄曼凝 Isabella Wong
       陈安莹 On-Ying Chan
       林伟健 Oscar Lam Wai-Kin
       关菊英 Susanna Kwan
       谭炳文 Ping-Man Tam
       夏雨 Yu Ha
       余慕莲 Mo-Lin Yu
       曾庆瑜 Hing Yue Chang
       郑家生 Ka Sang Cheung
       陈复活 Fok-Sang Chan
       程可为 Ho-Wai Ching
       杨泽霖 Chak Lam Yeung
       黄敏仪 Man-Yee Wong
       陈狄克 Ti-ko Chen
       刘红芳 Lau Hung-Fong
       胡美仪 Amy Hu
       黄志伟 Chi Wai Wong
       叶天行 Stephan Yip Tin-Hang
       李龙基 Loong Kei Lee
       王力 Wong Lik
       焦雄 Hung Chiu
       张雷 Mark Cheung Lui
       陈国权 Kwok Kuen Chan
       麦子云 Tzu-Yun Mai
       区瑞强 Albert Au
       森森 Sylvia Lai
       张德兰 Teresa Cheung
       白文彪 Man-Biu Bak
       王爱明 Oi-Ming Wong
       龙显蕙 Long Sian-Huei
       上官玉 Yuk Seung-Goon
       邝佐辉 Tony Kwong
       甘国卫 Sam Kam
       冯志丰 Chi-Fung Fung
       刘国诚 Kuo-Cheng Liu
       寇鸿萍 Isabella Kau Hung Ping
       蔡丽薇
       朱璧汶 Pei-Man Chu

◎简  介

  郭靖(梁家仁 饰)和黄蓉(欧阳佩珊 饰)碰见了年幼便落空了双亲的杨过(刘德华 饰),不幸他孤苦孤立的身世,侠肝义胆的佳耦两人收留了杨过,将他带回桃花岛,苦心调教。随着时候的推移,杨过渐渐长大,但是这人本性非常恶劣,又倔强不听疏导,但却有着极高的武学天赋,因而,郭靖将他送往了重阳宫,希望他可以在那边接管教化。
  但是,杨过却仍然我行我素,肆意妄为。一次偶然中,杨过闯入了教规明令制止进入的后山,在那边碰见了孙婆婆,又被恍如天人的小龙女(陈玉莲 饰)收为徒弟,教授给他了古墓派绝学。渐渐的,杨过和小龙女之间发生了真挚的友谊,但是,这段豪情却一定要蒙受非议微风雨。

  1. General
  2. Complete name : 神雕侠侣.The.Return.of.the.Condor.Heroes.1983.S01E01.WEB-DL.2160p.HEVC.AAC-TAG.mp4
  3. Format : MPEG-4
  4. Format profile : Base Media
  5. Codec ID : isom (isom/iso2/mp41)
  6. File size : 523 MiB
  7. Duration : 41 min 19 s
  8. Overall bit rate : 1 771 kb/s
  9. Writing application : Lavf58.32.104
  10. Video
  11. ID : 1
  12. Format : HEVC
  13. Format/Info : High Efficiency Video Coding
  14. Format profile : Main@L5@Main
  15. Codec ID : hev1
  16. Codec ID/Info : High Efficiency Video Coding
  17. Duration : 41 min 19 s
  18. Bit rate : 1 574 kb/s
  19. Width : 2 880 pixels
  20. Height : 2 160 pixels
  21. Display aspect ratio : 4:3
  22. Frame rate mode : Constant
  23. Frame rate : 25.000 FPS
  24. Color space : YUV
  25. Chroma subsampling : 4:2:0
  26. Bit depth : 8 bits
  27. Bits/(Pixel*Frame) : 0.010
  28. Stream size : 465 MiB (89%)
  29. Color range : Limited
  30. Color primaries : BT.709
  31. Transfer characteristics : BT.709
  32. Matrix coefficients : BT.709
  33. Codec configuration box : hvcC
  34. Audio
  35. ID : 2
  36. Format : AAC LC
  37. Format/Info : Advanced Audio Codec Low Complexity
  38. Codec ID : mp4a-40-2
  39. Duration : 41 min 19 s
  40. Bit rate mode : Constant
  41. Bit rate : 192 kb/s
  42. Channel(s) : 2 channels
  43. Channel layout : L R
  44. Sampling rate : 44.1 kHz
  45. Frame rate : 43.066 FPS (1024 SPF)
  46. Compression mode : Lossy
  47. Stream size : 56.0 MiB (11%)
  48. Default : Yes
  49. Alternate group : 1
复制代码
神雕侠侣 [全50集][国语中字][刘德华版本].The.Return.of.the.Condor.Heroes.1983.S01.WEB-DL.2160p.HEVC.AAC-TAG 25.57GB-2.jpg
神雕侠侣 [全50集][国语中字][刘德华版本].The.Return.of.the.Condor.Heroes.1983.S01.WEB-DL.2160p.HEVC.AAC-TAG 25.57GB-3.jpg
神雕侠侣 [全50集][国语中字][刘德华版本].The.Return.of.the.Condor.Heroes.1983.S01.WEB-DL.2160p.HEVC.AAC-TAG 25.57GB-4.jpg





本帖隐藏的下载地址需要VIP会员才可阅读,您需要升级才可阅读,点击这里升级VIP


温馨提醒:新种保举请利用qBittorrent,utorrent,transmission等标准BT软件下载!以获得最快速度。请大师下载完成后不要封闭下载软件 进献出自己的上传带宽 人报酬我 我为大家!
回复

使用道具 举报

蓝光币
411 枚
发表于 5 天前 | 显示全部楼层
看看有什么电影,感谢分享
回复

使用道具 举报

懒得打字嘛,点击右侧快捷回复 【右侧内容,后台自定义】
您需要登录后才可以回帖 登录 | 立即注册

本版积分规则

Archiver|手机版|小黑屋| 中国高清网  |网站地图

GMT+8, 2024-7-13 21:04 , Processed in 0.440099 second(s), 28 queries .

Powered by HDchina X3.4

Copyright 2017-2019©HDchina.All right reserved

返回顶部 联系我们