查看: 43|回复: 0

[韩剧] 黑社会的我成为了高中生[第01-04集][中文字幕].High.School.Return.of.a.Gangster.2024.S01.1080p.Viu.WEB-DL.H264.AAC-TAG 2.77GB

[复制链接]
蓝光币
255071 枚
发表于 6 天前 | 显示全部楼层 |阅读模式
黑社会的我成为了高中生[第01-04集][中笔墨幕].High.School.Return.of.a.Gangster.2024.S01.1080p.Viu.WEB-DL.H264.AAC-TAG 2.77GB-1.png

◎标  题 黑社会的我成为了高中生
◎译  名 黑帮的我成了高中生 / High School Return of A Gangster / I / A Gangster / Became a High School Student
◎片  名 조폭인 내가 고등학생이 되었습니다
◎年  代 2024
◎产  地 韩国
◎类  别 剧情 / 同性
◎语  言 韩语
◎IMDb评分 9/10 (21人评价)
◎IMDb链接 https://www.imdb.com/title/tt32499943/
◎豆瓣评分 7.9/10 (1010人评价)
◎豆瓣链接 https://movie.douban.com/subject/36328482/
◎演  员 尹灿荣 Chan-young Yoon
      奉宰铉 Bong Jae-hyun
      李瑞镇 Seo-jin Lee
      朴缮羽 Sun-woo Park

◎简  介
    该片报告想去黉舍是自己终生心愿的无学历者黑帮金德八 拯救被校暴受尽熬煎终极做出极端挑选的少年宋以宪后附体到他身上,然后宋以宪平常喜好的汉子崔世景对他发生思疑的故事。

  1. General
  2. Unique ID : 78930686644086909623151150804210215100 (0x3B617F4EA6FEE3E3C1DBD19E18F2E8BC)
  3. Complete name : High.School.Return.of.a.Gangster.S01E01.2024.1080p.Viu.WEB-DL.H264.AAC-TAG.mkv
  4. Duration : 52 min 14 s
  5. Overall bit rate mode : Variable
  6. Overall bit rate : 2 108 kb/s

  7. Video
  8. ID : 1
  9. Format : AVC
  10. Format/Info : Advanced Video Codec
  11. Format profile : [email]High@L4.1[/email]
  12. Format settings : CABAC / 4 Ref Frames
  13. Format settings, CABAC : Yes
  14. Format settings, Reference frames : 4 frames
  15. Codec ID : V_MPEG4/ISO/AVC
  16. Duration : 52 min 14 s
  17. Bit rate mode : Variable
  18. Bit rate : 2 009 kb/s
  19. Maximum bit rate : 4 500 kb/s
  20. Width : 1 920 pixels
  21. Height : 1 080 pixels
  22. Display aspect ratio : 16:9
  23. Frame rate mode : Constant
  24. Frame rate : 29.970 (30000/1001) FPS
  25. Original frame rate : 29.970 (29970/1000) FPS
  26. Color space : YUV
  27. Chroma subsampling : 4:2:0
  28. Bit depth : 8 bits
  29. Scan type : Progressive
  30. Bits/(Pixel*Frame) : 0.032
  31. Stream size : 751 MiB (95%)
  32. Writing library : VOLO1.4.1
  33. Language : Kanuri
  34. Default : Yes
  35. Forced : No

  36. Audio
  37. ID : 2
  38. Format : AAC LC
  39. Format/Info : Advanced Audio Codec Low Complexity
  40. Codec ID : A_AAC-2
  41. Duration : 52 min 14 s
  42. Bit rate : 96.0 kb/s
  43. Channel(s) : 2 channels
  44. Channel layout : L R
  45. Sampling rate : 48.0 kHz
  46. Frame rate : 46.875 FPS (1024 SPF)
  47. Compression mode : Lossy
  48. Delay relative to video : -42 ms
  49. Stream size : 35.9 MiB (5%)
  50. Language : Kanuri
  51. Default : Yes
  52. Forced : No

  53. Text #1
  54. ID : 3
  55. Format : UTF-8
  56. Codec ID : S_TEXT/UTF8
  57. Codec ID/Info : UTF-8 Plain Text
  58. Duration : 51 min 13 s
  59. Bit rate : 42 b/s
  60. Frame rate : 0.233 FPS
  61. Count of elements : 717
  62. Stream size : 16.0 KiB (0%)
  63. Title : Chinese Simplified
  64. Language : Chinese
  65. Default : Yes
  66. Forced : No

  67. Text #2
  68. ID : 4
  69. Format : UTF-8
  70. Codec ID : S_TEXT/UTF8
  71. Codec ID/Info : UTF-8 Plain Text
  72. Duration : 51 min 14 s
  73. Bit rate : 43 b/s
  74. Frame rate : 0.237 FPS
  75. Count of elements : 728
  76. Stream size : 16.4 KiB (0%)
  77. Title : Chinese Traditional
  78. Language : Chinese
  79. Default : No
  80. Forced : No
复制代码
黑社会的我成为了高中生[第01-04集][中笔墨幕].High.School.Return.of.a.Gangster.2024.S01.1080p.Viu.WEB-DL.H264.AAC-TAG 2.77GB-3.png 黑社会的我成为了高中生[第01-04集][中笔墨幕].High.School.Return.of.a.Gangster.2024.S01.1080p.Viu.WEB-DL.H264.AAC-TAG 2.77GB-4.png 黑社会的我成为了高中生[第01-04集][中笔墨幕].High.School.Return.of.a.Gangster.2024.S01.1080p.Viu.WEB-DL.H264.AAC-TAG 2.77GB-5.png 黑社会的我成为了高中生[第01-04集][中笔墨幕].High.School.Return.of.a.Gangster.2024.S01.1080p.Viu.WEB-DL.H264.AAC-TAG 2.77GB-6.png 黑社会的我成为了高中生[第01-04集][中笔墨幕].High.School.Return.of.a.Gangster.2024.S01.1080p.Viu.WEB-DL.H264.AAC-TAG 2.77GB-7.png 黑社会的我成为了高中生[第01-04集][中笔墨幕].High.School.Return.of.a.Gangster.2024.S01.1080p.Viu.WEB-DL.H264.AAC-TAG 2.77GB-8.png







新种保举请利用qBittorrent,utorrent,transmission等标准BT软件下载!以获得最快速度。请大师下载完成后不要封闭下载软件 进献出自己的上传带宽 人报酬我 我为大家!





本帖隐藏的下载地址需要VIP会员才可阅读,您需要升级才可阅读,点击这里升级VIP


回复

使用道具 举报

懒得打字嘛,点击右侧快捷回复 【右侧内容,后台自定义】
您需要登录后才可以回帖 登录 | 立即注册

本版积分规则

Archiver|手机版|小黑屋| 中国高清网  |网站地图

GMT+8, 2024-6-17 09:09 , Processed in 0.377507 second(s), 28 queries .

Powered by HDchina X3.4

Copyright 2017-2019©HDchina.All right reserved

返回顶部 联系我们