查看: 37|回复: 0

[韩剧] 名校的阶梯 [全7集][中字].Hierarchy.S01.2024.1080p.NF.WEB-DL.DDP5.1.Atmos.H264-TAG 20.02GB

[复制链接]
蓝光币
255069 枚
发表于 6 天前 | 显示全部楼层 |阅读模式
名校的门路 [全7集][中字].Hierarchy.S01.2024.1080p.NF.WEB-DL.DDP5.1.Atmos.H264-TAG 20.02GB-1.jpg

* 片    名   名校的门路
* 又    名   校园阶级 / Hierarchy
* 分    类   TVSeries
* 制    片   韩国
* 类    型   剧情
* 语    言   韩语
* 首    映   2024-06-07
* 集    数   7
* IMDB    https://www.imdb.com/title/tt27763561/
* 豆    瓣   https://movie.douban.com/subject/36310138/
* 导    演   裴贤振 Hyun-jin Bae

* 编    剧   秋惠美 Hye-mi Choo

* 主    演   卢正义 Jeong-eui Roh
                 李彩玟 Lee Chae Min
                 金载原 Kim Jae Won
                 池慧媛 Hae-won Chi
                 李元郑 Wonjung Lee
                 金太轸 Tae-jung Kim

* 剧    情   
   
             在Joosin高中,最顶尖的0.01%的门生控制着法令和次序,但一个奥秘的转门生在他们牢不成破的天下里留下了一条裂缝。

  1. General
  2. Unique ID : 314643418028072628617119633772546175053 (0xECB61E39144F77CF374C8C65FC45304D)
  3. Complete name : Hierarchy.S01E01.2024.1080p.NF.WEB-DL.DDP5.1.Atmos.H264-HHWEB.mkv
  4. Format : Matroska
  5. Format version : Version 4
  6. File size : 2.54 GiB
  7. Duration : 58 min 24 s
  8. Overall bit rate mode : Variable
  9. Overall bit rate : 6 236 kb/s
  10. Frame rate : 23.976 FPS
  11. Writing application : mkvmerge v79.0 (\'Funeral Pyres\') 64-bit
  12. Writing library : libebml v1.4.4 + libmatroska v1.7.1

  13. Video
  14. ID : 1
  15. Format : AVC
  16. Format/Info : Advanced Video Codec
  17. Format profile : Main@L4
  18. Format settings : CABAC / 3 Ref Frames
  19. Format settings, CABAC : Yes
  20. Format settings, Reference frames : 3 frames
  21. Codec ID : V_MPEG4/ISO/AVC
  22. Duration : 58 min 23 s
  23. Bit rate mode : Variable
  24. Bit rate : 5 000 kb/s
  25. Maximum bit rate : 7 500 kb/s
  26. Width : 1 920 pixels
  27. Height : 1 080 pixels
  28. Display aspect ratio : 16:9
  29. Frame rate mode : Constant
  30. Frame rate : 23.976 (24000/1001) FPS
  31. Color space : YUV
  32. Chroma subsampling : 4:2:0
  33. Bit depth : 8 bits
  34. Scan type : Progressive
  35. Bits/(Pixel*Frame) : 0.101
  36. Stream size : 1.97 GiB (77%)
  37. Writing library : x264 core 148 r2727 7d026e8
  38. Encoding settings : cabac=1 / ref=3 / deblock=1:0:0 / analyse=0x1:0x111 / me=umh / subme=10 / psy=1 / psy_rd=1.00:0.00 / mixed_ref=1 / me_range=24 / chroma_me=1 / trellis=2 / 8x8dct=0 / cqm=0 / deadzone=21,11 / fast_pskip=1 / chroma_qp_offset=-2 / threads=6 / lookahead_threads=1 / sliced_threads=0 / nr=0 / decimate=1 / interlaced=0 / bluray_compat=0 / stitchable=1 / constrained_intra=0 / bframes=2 / b_pyramid=0 / b_adapt=2 / b_bias=0 / direct=3 / weightb=1 / open_gop=0 / weightp=2 / keyint=240 / keyint_min=121 / scenecut=0 / intra_refresh=0 / rc_lookahead=48 / rc=2pass / mbtree=1 / bitrate=5000 / ratetol=1.0 / qcomp=0.50 / qpmin=6 / qpmax=51 / qpstep=4 / cplxblur=20.0 / qblur=0.5 / vbv_maxrate=7500 / vbv_bufsize=10000 / nal_hrd=vbr / filler=0 / ip_ratio=1.40 / aq=1:1.00
  39. Default : Yes
  40. Forced : No

  41. Audio #1
  42. ID : 2
  43. Format : E-AC-3 JOC
  44. Format/Info : Enhanced AC-3 with Joint Object Coding
  45. Commercial name : Dolby Digital Plus with Dolby Atmos
  46. Codec ID : A_EAC3
  47. Duration : 58 min 23 s
  48. Bit rate mode : Constant
  49. Bit rate : 768 kb/s
  50. Channel(s) : 6 channels
  51. Channel layout : L R C LFE Ls Rs
  52. Sampling rate : 48.0 kHz
  53. Frame rate : 31.250 FPS (1536 SPF)
  54. Compression mode : Lossy
  55. Stream size : 321 MiB (12%)
  56. Title : 한국어 [Dolby Digital Plus with Dolby Atmos 5.1]
  57. Language : Korean
  58. Service kind : Complete Main
  59. Default : Yes
  60. Forced : No
  61. Complexity index : 16
  62. Number of dynamic objects : 15
  63. Bed channel count : 1 channel
  64. Bed channel configuration : LFE

  65. Audio #2
  66. ID : 3
  67. Format : E-AC-3
  68. Format/Info : Enhanced AC-3
  69. Commercial name : Dolby Digital Plus
  70. Codec ID : A_EAC3
  71. Duration : 58 min 24 s
  72. Bit rate mode : Constant
  73. Bit rate : 640 kb/s
  74. Channel(s) : 6 channels
  75. Channel layout : L R C LFE Ls Rs
  76. Sampling rate : 48.0 kHz
  77. Frame rate : 31.250 FPS (1536 SPF)
  78. Compression mode : Lossy
  79. Stream size : 267 MiB (10%)
  80. Title : English [Dolby Digital Plus 5.1]
  81. Language : English
  82. Service kind : Complete Main
  83. Default : No
  84. Forced : No

  85. Text #1
  86. ID : 4
  87. Format : UTF-8
  88. Codec ID : S_TEXT/UTF8
  89. Codec ID/Info : UTF-8 Plain Text
  90. Duration : 51 min 40 s
  91. Bit rate : 90 b/s
  92. Frame rate : 0.333 FPS
  93. Count of elements : 1032
  94. Stream size : 34.2 KiB (0%)
  95. Title : 한국어 [SDH]
  96. Language : Korean
  97. Default : No
  98. Forced : No

  99. Text #2
  100. ID : 5
  101. Format : UTF-8
  102. Codec ID : S_TEXT/UTF8
  103. Codec ID/Info : UTF-8 Plain Text
  104. Duration : 55 min 37 s
  105. Bit rate : 42 b/s
  106. Frame rate : 0.199 FPS
  107. Count of elements : 664
  108. Stream size : 17.4 KiB (0%)
  109. Title : 中文(简体)
  110. Language : Chinese
  111. Default : Yes
  112. Forced : No

  113. Text #3
  114. ID : 6
  115. Format : UTF-8
  116. Codec ID : S_TEXT/UTF8
  117. Codec ID/Info : UTF-8 Plain Text
  118. Duration : 55 min 37 s
  119. Bit rate : 40 b/s
  120. Frame rate : 0.197 FPS
  121. Count of elements : 659
  122. Stream size : 16.7 KiB (0%)
  123. Title : 中文 (繁體)
  124. Language : Chinese
  125. Default : No
  126. Forced : No

  127. Text #4
  128. ID : 7
  129. Format : UTF-8
  130. Codec ID : S_TEXT/UTF8
  131. Codec ID/Info : UTF-8 Plain Text
  132. Duration : 50 min 19 s
  133. Bit rate : 51 b/s
  134. Frame rate : 0.209 FPS
  135. Count of elements : 631
  136. Stream size : 19.2 KiB (0%)
  137. Title : English
  138. Language : English
  139. Default : No
  140. Forced : No

  141. Menu
  142. 00:00:00.000 : en:Part 01
  143. 00:52:01.000 : en:Credits
复制代码
名校的门路 [全7集][中字].Hierarchy.S01.2024.1080p.NF.WEB-DL.DDP5.1.Atmos.H264-TAG 20.02GB-2.jpg





新种保举请利用qBittorrent,utorrent,transmission等标准BT软件下载!以获得最快速度。请大师下载完成后不要封闭下载软件 进献出自己的上传带宽 人报酬我 我为大家!





名校的门路 [全7集][中字].Hierarchy.S01.2024.1080p.NF.WEB-DL.DDP5.1.Atmos.H264-TAG.torrent (101.72 KB, 下载次数: 11)

回复

使用道具 举报

懒得打字嘛,点击右侧快捷回复 【右侧内容,后台自定义】
您需要登录后才可以回帖 登录 | 立即注册

本版积分规则

Archiver|手机版|小黑屋| 中国高清网  |网站地图

GMT+8, 2024-6-17 08:11 , Processed in 0.383155 second(s), 28 queries .

Powered by HDchina X3.4

Copyright 2017-2019©HDchina.All right reserved

返回顶部 联系我们