查看: 28|回复: 0

[美剧] 乐高星球大战:抵抗组织的崛起/LEGO Star Wars: The Resistance Rises 第一季 [全5集][中字].LEGO.Star.Wars.Resistance.Rises.Shorts.2016.S01.10255p.DSNP.WEB-DL.DDP5.1.H.264-TAG 1.52GB

[复制链接]
蓝光币
255075 枚
发表于 6 天前 | 显示全部楼层 |阅读模式
乐高星球大战:抵抗构造的突起/LEGO Star Wars: The Resistance Rises 第一季 [全5集][中字].LEGO.Star.Wars.Resistance.Rises.Shorts.2016.S01.1080p.DSNP.WEB-DL.DDP5.1.H.264-TAG 1.52GB-1.jpg

◎译  名 乐高星球大战:抵抗构造的突起 / LEGO Star Wars: The Resistance Rises
◎片  名 Lego Star Wars: The Resistance Rises
◎年  代 2016
◎产  地 美国
◎类  别 科幻 / 动画
◎语  言 英语
◎上映日期 2016-02-15
◎IMDb评分  6.2/10 from 164 users
◎IMDb链接  https://www.imdb.com/title/tt8352934/
◎豆瓣评分 7.8/10 from 83 users
◎豆瓣链接 https://movie.douban.com/subject/26903980/
◎集  数 5
◎演  员 安东尼·丹尼尔斯 / Anthony Daniels
      亚当·德赖弗 / Adam Driver
      格温多兰·克里斯蒂 / Gwendoline Christie
      特雷弗·德瓦 / Trevor Devall
      格蕾·德丽斯勒 / Grey DeLisle
      比利·迪·威廉姆斯 / Billy Dee Williams

◎简  介 

  迪士尼XD频道从2月15日起播出全新动画片《乐高星球大战:抵抗构造突起》(LEGO Star Wars: The Resistance Rises)。这部动画片的时候设备在《星球大战:原力醒觉》之前。第一集《Poe to the Rescue》报告了波·达默龙从法斯骑兵长手里解救阿克巴元帅的故事。

  1. General
  2. Unique ID : 222167065604850468335546733404983915794 (0xA723D207BBC0E5734F50DE89D143F512)
  3. Complete name : LEGO.Star.Wars.Resistance.Rises.Shorts.S01E01.Poe.to.the.Rescue.1080p.DSNP.WEB-DL.DDP5.1.H.264-TAG.mkv
  4. Format : Matroska
  5. Format version : Version 4
  6. File size : 430 MiB
  7. Duration : 6 min 46 s
  8. Overall bit rate mode : Variable
  9. Overall bit rate : 8 876 kb/s
  10. Encoded date : UTC 2022-09-11 07:56:13
  11. Writing application : mkvmerge v70.0.0 ('Caught A Lite Sneeze') 64-bit
  12. Writing library : libebml v1.4.2 + libmatroska v1.6.4

  13. Video
  14. ID : 1
  15. Format : AVC
  16. Format/Info : Advanced Video Codec
  17. Format profile : High@L4
  18. Format settings : CABAC / 4 Ref Frames
  19. Format settings, CABAC : Yes
  20. Format settings, Reference frames : 4 frames
  21. Codec ID : V_MPEG4/ISO/AVC
  22. Duration : 6 min 46 s
  23. Bit rate mode : Variable
  24. Bit rate : 8491 kb/s
  25. Maximum bit rate : 12.7 Mb/s
  26. Width : 1 920 pixels
  27. Height : 1 080 pixels
  28. Display aspect ratio : 16:9
  29. Frame rate mode : Constant
  30. Frame rate : 23.976 (24000/1001) FPS
  31. Color space : YUV
  32. Chroma subsampling : 4:2:0
  33. Bit depth : 8 bits
  34. Scan type : Progressive
  35. Bits/(Pixel*Frame) : 0.171
  36. Stream size : 412 MiB (96%)
  37. Language : English
  38. Default : Yes
  39. Forced : No
  40. Color range : Limited
  41. Color primaries : BT.709
  42. Transfer characteristics : BT.709
  43. Matrix coefficients : BT.709

  44. Audio #1
  45. ID : 2
  46. Format : E-AC-3
  47. Format/Info : Enhanced AC-3
  48. Commercial name : Dolby Digital Plus
  49. Codec ID : A_EAC3
  50. Duration : 6 min 46 s
  51. Bit rate mode : Constant
  52. Bit rate : 256 kb/s
  53. Channel(s) : 6 channels
  54. Channel layout : L R C LFE Ls Rs
  55. Sampling rate : 48.0 kHz
  56. Frame rate : 31.250 FPS (1536 SPF)
  57. Compression mode : Lossy
  58. Stream size : 12.4 MiB (3%)
  59. Language : English
  60. Service kind : Complete Main
  61. Default : Yes
  62. Forced : No

  63. Audio #2
  64. ID : 3
  65. Format : AAC LC
  66. Format/Info : Advanced Audio Codec Low Complexity
  67. Codec ID : A_AAC-2
  68. Duration : 6 min 46 s
  69. Bit rate : 125 kb/s
  70. Channel(s) : 2 channels
  71. Channel layout : L R
  72. Sampling rate : 48.0 kHz
  73. Frame rate : 46.875 FPS (1024 SPF)
  74. Compression mode : Lossy
  75. Stream size : 6.08 MiB (1%)
  76. Language : Romanian
  77. Default : No
  78. Forced : No

  79. Text #1
  80. ID : 4
  81. Format : UTF-8
  82. Codec ID : S_TEXT/UTF8
  83. Codec ID/Info : UTF-8 Plain Text
  84. Duration : 6 min 11 s
  85. Bit rate : 68 b/s
  86. Count of elements : 122
  87. Stream size : 3.13 KiB (0%)
  88. Language : English
  89. Default : No
  90. Forced : No

  91. Text #2
  92. ID : 5
  93. Format : UTF-8
  94. Codec ID : S_TEXT/UTF8
  95. Codec ID/Info : UTF-8 Plain Text
  96. Duration : 6 min 39 s
  97. Bit rate : 69 b/s
  98. Count of elements : 132
  99. Stream size : 3.38 KiB (0%)
  100. Title : SDH
  101. Language : English
  102. Default : No
  103. Forced : No

  104. Text #3
  105. ID : 6
  106. Format : UTF-8
  107. Codec ID : S_TEXT/UTF8
  108. Codec ID/Info : UTF-8 Plain Text
  109. Duration : 6 min 45 s
  110. Bit rate : 64 b/s
  111. Count of elements : 94
  112. Stream size : 3.18 KiB (0%)
  113. Language : Czech
  114. Default : No
  115. Forced : No

  116. Text #4
  117. ID : 7
  118. Format : UTF-8
  119. Codec ID : S_TEXT/UTF8
  120. Codec ID/Info : UTF-8 Plain Text
  121. Duration : 6 min 45 s
  122. Bit rate : 89 b/s
  123. Count of elements : 103
  124. Stream size : 4.45 KiB (0%)
  125. Language : Greek
  126. Default : No
  127. Forced : No

  128. Text #5
  129. ID : 8
  130. Format : UTF-8
  131. Codec ID : S_TEXT/UTF8
  132. Codec ID/Info : UTF-8 Plain Text
  133. Duration : 6 min 45 s
  134. Bit rate : 68 b/s
  135. Count of elements : 112
  136. Stream size : 3.38 KiB (0%)
  137. Title : Latin America
  138. Language : Spanish
  139. Default : No
  140. Forced : No

  141. Text #6
  142. ID : 9
  143. Format : UTF-8
  144. Codec ID : S_TEXT/UTF8
  145. Codec ID/Info : UTF-8 Plain Text
  146. Duration : 6 min 45 s
  147. Bit rate : 67 b/s
  148. Count of elements : 101
  149. Stream size : 3.35 KiB (0%)
  150. Language : Hungarian
  151. Default : No
  152. Forced : No

  153. Text #7
  154. ID : 10
  155. Format : UTF-8
  156. Codec ID : S_TEXT/UTF8
  157. Codec ID/Info : UTF-8 Plain Text
  158. Duration : 6 min 45 s
  159. Bit rate : 64 b/s
  160. Count of elements : 98
  161. Stream size : 3.18 KiB (0%)
  162. Language : Polish
  163. Default : No
  164. Forced : No

  165. Text #8
  166. ID : 11
  167. Format : UTF-8
  168. Codec ID : S_TEXT/UTF8
  169. Codec ID/Info : UTF-8 Plain Text
  170. Duration : 6 min 45 s
  171. Bit rate : 65 b/s
  172. Count of elements : 102
  173. Stream size : 3.25 KiB (0%)
  174. Language : Romanian
  175. Default : No
  176. Forced : No

  177. Text #9
  178. ID : 12
  179. Format : UTF-8
  180. Codec ID : S_TEXT/UTF8
  181. Codec ID/Info : UTF-8 Plain Text
  182. Duration : 6 min 45 s
  183. Bit rate : 68 b/s
  184. Count of elements : 102
  185. Stream size : 3.41 KiB (0%)
  186. Language : Turkish
  187. Default : No
  188. Forced : No

  189. Text #10
  190. ID : 13
  191. Format : UTF-8
  192. Codec ID : S_TEXT/UTF8
  193. Codec ID/Info : UTF-8 Plain Text
  194. Duration : 6 min 42 s
  195. Bit rate : 74 b/s
  196. Count of elements : 103
  197. Stream size : 3.67 KiB (0%)
  198. Title : Hong Kong
  199. Language : Chinese
  200. Default : No
  201. Forced : No

  202. Text #11
  203. ID : 14
  204. Format : UTF-8
  205. Codec ID : S_TEXT/UTF8
  206. Codec ID/Info : UTF-8 Plain Text
  207. Duration : 6 min 42 s
  208. Bit rate : 74 b/s
  209. Count of elements : 103
  210. Stream size : 3.64 KiB (0%)
  211. Title : Traditional
  212. Language : Chinese
  213. Default : No
  214. Forced : No
复制代码
59f95dfcde2f54c24fa2be8049ea4919.png 13dae6195f57a2cc1933d4f50696ecfa.png af17329c8892863036ee8a8dc6c8d8a2.png 005aef3d28c04833d6d48aa6db89d001.png b75876f2f2fc81016bb1260896eb60f5.png





新种保举请利用qBittorrent,utorrent,transmission等标准BT软件下载!以获得最快速度。请大师下载完成后不要封闭下载软件 进献出自己的上传带宽 人报酬我 我为大家!






本帖隐藏的下载地址需要VIP会员才可阅读,您需要升级才可阅读,点击这里升级VIP


回复

使用道具 举报

懒得打字嘛,点击右侧快捷回复 【右侧内容,后台自定义】
您需要登录后才可以回帖 登录 | 立即注册

本版积分规则

Archiver|手机版|小黑屋| 中国高清网  |网站地图

GMT+8, 2024-6-17 10:05 , Processed in 0.348805 second(s), 28 queries .

Powered by HDchina X3.4

Copyright 2017-2019©HDchina.All right reserved

返回顶部 联系我们