查看: 55|回复: 0

[港剧] 中华英雄/中華英雄 [25集全][国粤双语繁体硬字幕].The.Blood.Sword.1990.Complete.1080p.HDTV.DualAudio.MPEG.2.0.MPG2-TAG 38.32GB

[复制链接]
蓝光币
255071 枚
发表于 2024-6-3 15:48:35 | 显示全部楼层 |阅读模式
中华豪杰/中華豪杰 [25集全][国粤双语繁体硬字幕].The.Blood.Sword.1990.Complete.1080p.HDTV.DualAudio.MPEG.2.0.MPG2-TAG 38.32GB-1.jpg


◎译  名 中华豪杰
◎片  名 中華豪杰
◎年  代 1990
◎产  地 中国香港
◎类  别 剧情 / 行动 / 武侠
◎语  言 粤语
◎上映日期 1990-06-11(中国香港)
◎豆瓣评分 7.9/10 from 432 users
◎豆瓣链接 https://movie.douban.com/subject/24744330/
◎集  数 25
◎片  长 19分钟
◎导  演 招振强 Chun Keung Chiu
◎编  剧 郑忠泰 Philip Cheng / 周燕娴 Yin Han Chow
◎主  演 何家劲 Kenny Ho
       关咏荷 Esther Wing Ho Kwan
       叶玉卿 Veronica Yip
       尹天照 Tin-chiu Wan
       陈冬梅 Dung-Mooi Chan
       莫家尧 Ga Yiu Mok
       杨泽霖 Chak Lam Yeung
       吴元俊 Yuan-chun Wu
       陈子洪 Ji Hung Chan


◎标  签 何家劲 | 港剧 | 电视剧 | 童年 | 行动 | 香港 | ATV | 关咏荷

◎简  介  

  身负盖世武功的华豪杰,因受天煞孤星之困,阔别亲友,孤身独闯火鸟岛,为解华、赤两家之恩怨,途中与把守外围的火鸟交兵,几经困险,终达火鸟岛。在岛上,豪杰藉其精湛医术,为居民消除困苦,深得岛民称赞,得见小堡主赤焰,并结识南北二老及紫衣等人。豪杰见岛上生活休闲,决留下居住,帮助岛上居民。堡主赤炼鹰王诈死练功,神功初成之日,复出揭穿华家罪孽,豪杰被捕科罪,全岛居民高低讨情,鹰王与豪杰公允比试,最初豪杰以德以武服之,并愿留下重振赤家,终究鹰王冰释前嫌。豪杰儿子华剑雄,天资敏悟,身手灵活,不愿跟自小养大他的生奴学医,反爱处处游玩闯祸,某日结识无影门人余不为,被卷入与琼天和司徒莫问的三角爱情中。而莫问乃气宗司徒无量的儿子,无量为扬名立万,强要儿子勤练武功,莫问迫于与琼天分手,适值遇上剑雄,不为和琼天在一路,误解加深,大打起来,最初无量得救,并扬言三往后血洗无影门。不为负伤前往告诉,剑雄仗义送他上山,生奴发觉,尾随追上恐剑雄闯祸,途中巧遇无量等人。生奴昔时乃无量之仇人,并传与生奴一式无量神掌,现久别重逢,美意下齐上无影门。大战结门,无量父子血洗无影门,只要不为能逃走,剑雄为救不为一命,愿接莫问十掌,安知七掌后已负伤,生奴迫于代接,最初一掌惨死就地,剑雄悲痛不已,抱走生奴,但不为始终也逃不出莫问的魔掌。生奴死后,剑雄意志低沉,无量为抵偿误期之误,决传功于剑雄,剑雄亦起头重新做人。某日在执拾生奴遗物中得知要往赤家,整理心情决然前往。途中巧遇踏雪,豪情有所成长,惋惜临危散乱,落空踪影。到达岛后重遇思傲,两人被赤焰等误解,思疑是奸细,最初得知是豪杰之子,误解全消。豪杰父子重遇,诠释分手之情,并愿留下帮助赤家,因而亦展开豪杰、紫衣及赤焰和剑雄、踏雪、思傲的豪情成长,固然有明有暗,有惊有喜,最初剑雄终与踏雪结婚,而天堂门方面,要求剑雄完成前任掌门心愿接任掌门。剑雄尚在斟酌,安知引发莫问猜疑,夜袭踏雪家,多名叔父们惨死,踏雪也被捉,剑雄决与莫问同流合污,决然断臂消除与无量之恩义。而堡中思傲与紫衣亦奥秘失落,豪杰父子思疑天堂门所为,两人动身前往天堂门。途中发现紫衣中毒,豪杰与紫衣寻药解毒,剑雄先行上路,途中血族三煞驱逐入内,剑雄得知今朝割裂情况,戾气日重,魔气日盛,因而决心改变,一改颓风,勤练奇招。豪杰为救紫衣,不惜冒险,紫衣非常感动,最初药到病除,齐回天堂门,元老会首领元老..

  1. Video
  2. ID : 1
  3. Format : MPEG Video
  4. Format version : Version 2
  5. Format profile : Main@High
  6. Format settings : BVOP
  7. Format settings, BVOP : Yes
  8. Format settings, Matrix : Default
  9. Codec ID : V_MPEG2
  10. Codec ID/Info : MPEG 1 or 2 Video
  11. Duration : 19 min 24 s
  12. Bit rate mode : Variable
  13. Bit rate : 11.8 Mb/s
  14. Width : 1 920 pixels
  15. Height : 1 080 pixels
  16. Display aspect ratio : 16:9
  17. Frame rate mode : Variable
  18. Frame rate : 29.863 FPS
  19. Original frame rate : 30.000 FPS
  20. Color space : YUV
  21. Chroma subsampling : 4:2:0
  22. Bit depth : 8 bits
  23. Scan type : Progressive
  24. Compression mode : Lossy
  25. Bits/(Pixel*Frame) : 0.190
  26. Time code of first frame : 00:00:00:00
  27. Time code source : Group of pictures header
  28. Stream size : 1.59 GiB (97%)
  29. Default : Yes
  30. Forced : No

  31. Audio #1
  32. ID : 2
  33. Format : MPEG Audio
  34. Format version : Version 1
  35. Format profile : Layer 2
  36. Codec ID : A_MPEG/L2
  37. Codec ID/Hint : MP2
  38. Duration : 19 min 24 s
  39. Bit rate mode : Constant
  40. Bit rate : 192 kb/s
  41. Channel(s) : 2 channels
  42. Sampling rate : 44.1 kHz
  43. Frame rate : 38.281 FPS (1152 SPF)
  44. Compression mode : Lossy
  45. Delay relative to video : -16 ms
  46. Stream size : 26.6 MiB (2%)
  47. Title : Mandarin
  48. Language : Chinese
  49. Default : Yes
  50. Forced : No

  51. Audio #2
  52. ID : 3
  53. Format : MPEG Audio
  54. Format version : Version 1
  55. Format profile : Layer 2
  56. Codec ID : A_MPEG/L2
  57. Codec ID/Hint : MP2
  58. Duration : 19 min 24 s
  59. Bit rate mode : Constant
  60. Bit rate : 192 kb/s
  61. Channel(s) : 2 channels
  62. Sampling rate : 48.0 kHz
  63. Frame rate : 41.667 FPS (1152 SPF)
  64. Compression mode : Lossy
  65. Delay relative to video : -16 ms
  66. Stream size : 26.7 MiB (2%)
  67. Title : Cantonese
  68. Language : Chinese
  69. Default : No
  70. Forced : No
复制代码










新种保举请利用qBittorrent,utorrent,transmission等标准BT软件下载!以获得最快速度。请大师下载完成后不要封闭下载软件 进献出自己的上传带宽 人报酬我 我为大家!




中华豪杰 [25集全][国粤双语繁体硬字幕].The.Blood.Sword.1990.Complete.1080p.HDTV.D.torrent (193.67 KB, 下载次数: 3)

回复

使用道具 举报

懒得打字嘛,点击右侧快捷回复 【右侧内容,后台自定义】
您需要登录后才可以回帖 登录 | 立即注册

本版积分规则

Archiver|手机版|小黑屋| 中国高清网  |网站地图

GMT+8, 2024-6-17 09:03 , Processed in 0.351825 second(s), 28 queries .

Powered by HDchina X3.4

Copyright 2017-2019©HDchina.All right reserved

返回顶部 联系我们