查看: 1200|回复: 2

[剧情片] 飞驰人生2[国语音轨/中文字幕].Pegasus.2.2024.1080p.WEB-DL.H264.AAC-TAG 6.03GB

[复制链接]
蓝光币
256104 枚
发表于 2024-4-29 12:56:56 | 显示全部楼层 |阅读模式
飞奔人生2[国语音轨/中笔墨幕].Pegasus.2.2024.1080p.WEB-DL.H264.AAC-TAG 6.03GB-1.png

◎标  题 飞奔人生2
◎译  名 Pegasus 2
◎年  代 2024
◎产  地 中国大陆
◎类  别 剧情 / 笑剧 / 活动
◎语  言 汉语普通话
◎上映日期 2024-02-10(中国大陆)
◎IMDb评分 7.2/10 (531人评价)
◎IMDb链接 https://www.imdb.com/title/tt30829309/
◎豆瓣评分 7.7/10 (511101人评价)
◎豆瓣链接 https://movie.douban.com/subject/36369452/
◎片  长 121分钟
◎导  演 韩寒 Han Han
◎编  剧 韩寒 Han Han
◎演  员 沈腾 Teng Shen
      范丞丞 Chengcheng Fan
      尹正 Zheng Yin
      张本煜 Benyu Zhang
      孙艺洲 Yizhou Sun
      魏翔 Xiang Wei
      贾冰 Bing Jia
      郑恺 Kai Zheng
      冯绍峰 Shaofeng Feng
      黄景瑜 Johnny Huang
      刘昊然 Haoran Liu
      于适 Yosh Yu
      胡先煦 Xianxu Hu
      阎鹤祥 Hexiang Yan
      周野芒 Yemang Zhou
      高华阳 Zack Gao
      孙强 Qiang Sun
      范高翔 Gaoxiang Fan
      郝瀚 Han Hao

◎简  介
    五年前巴音布鲁克的悲壮一搏,传奇车手张驰(沈腾 饰)赢得了角逐,却输掉了一切。因铅封始终未能找到,他的成就被组委会取消,为了谋生开办驾校又遭到收集恶意诽谤,贫困失意,不闻一位。偶然的一天,一通电话让他重燃赛车手的热情。接近停产的老头乐车厂厂长(贾冰 饰)是张驰的粉丝,他 自动提出援助让张驰的车队去拼搏最初一届巴音布鲁克。老头乐的员工厉小海(范丞丞 饰)天赋出众,在张驰、孙宇强(尹正 饰)、记星(张本煜 饰)和万年不及格的菜鸟驾校学员刘显德(孙艺洲 饰)结合练习下,小海长大敏捷。   只是通往成功的门路布满艰辛与磨难,有的人过于理想,有的人过分现实……

  1. ##### MediaInfo ######
  2. General
  3. Complete name : [飞奔人生2].Pegasus.2.2024.1080p.WEB-DL.H264.AAC-TAG.mp4
  4. Duration : 2 h 1 min
  5. Overall bit rate mode : Variable
  6. Overall bit rate : 7 134 kb/s

  7. Video
  8. ID : 1
  9. Format : AVC
  10. Format/Info : Advanced Video Codec
  11. Format profile : High@L4
  12. Format settings : CABAC / 3 Ref Frames
  13. Format settings, CABAC : Yes
  14. Format settings, Reference frames : 3 frames
  15. Format settings, GOP : M=3, N=50
  16. Codec ID : avc1
  17. Codec ID/Info : Advanced Video Coding
  18. Duration : 2 h 1 min
  19. Source duration : 2 h 0 min
  20. Bit rate mode : Constant
  21. Bit rate : 7 001 kb/s
  22. Width : 1 920 pixels
  23. Height : 1 080 pixels
  24. Display aspect ratio : 16:9
  25. Frame rate mode : Constant
  26. Frame rate : 25.000 FPS
  27. Color space : YUV
  28. Chroma subsampling : 4:2:0
  29. Bit depth : 8 bits
  30. Scan type : Progressive
  31. Bits/(Pixel*Frame) : 0.135
  32. Stream size : 5.68 GiB (94%)
  33. Source stream size : 5.92 GiB (98%)
  34. Color range : Limited
  35. Color primaries : BT.709
  36. Transfer characteristics : BT.709
  37. Matrix coefficients : BT.709
  38. Codec configuration box : avcC

  39. Audio
  40. ID : 2
  41. Format : AAC LC
  42. Format/Info : Advanced Audio Codec Low Complexity
  43. Codec ID : mp4a-40-2
  44. Duration : 2 h 0 min
  45. Bit rate mode : Variable
  46. Bit rate : 125 kb/s
  47. Maximum bit rate : 129 kb/s
  48. Channel(s) : 2 channels
  49. Channel layout : L R
  50. Sampling rate : 48.0 kHz
  51. Frame rate : 46.875 FPS (1024 SPF)
  52. Compression mode : Lossy
  53. Stream size : 109 MiB (2%)
  54. Default : Yes
  55. Alternate group : 1
复制代码

飞奔人生2[国语音轨/中笔墨幕].Pegasus.2.2024.1080p.WEB-DL.H264.AAC-TAG 6.03GB-3.png
飞奔人生2[国语音轨/中笔墨幕].Pegasus.2.2024.1080p.WEB-DL.H264.AAC-TAG 6.03GB-4.png
飞奔人生2[国语音轨/中笔墨幕].Pegasus.2.2024.1080p.WEB-DL.H264.AAC-TAG 6.03GB-5.png
飞奔人生2[国语音轨/中笔墨幕].Pegasus.2.2024.1080p.WEB-DL.H264.AAC-TAG 6.03GB-6.png
飞奔人生2[国语音轨/中笔墨幕].Pegasus.2.2024.1080p.WEB-DL.H264.AAC-TAG 6.03GB-7.png
飞奔人生2[国语音轨/中笔墨幕].Pegasus.2.2024.1080p.WEB-DL.H264.AAC-TAG 6.03GB-8.png



新种保举请利用qBittorrent,utorrent,transmission等标准BT软件下载!以获得最快速度。请大师下载完成后不要封闭下载软件 进献出自己的上传带宽 人报酬我 我为大家!




本帖隐藏的下载地址需要VIP会员才可阅读,您需要升级才可阅读,点击这里升级VIP


回复

使用道具 举报

蓝光币
1 枚
发表于 2024-4-29 23:58:48 | 显示全部楼层

这个帖子不回对不起自己!我想我是一天也不能离开中国高清电影网
回复

使用道具 举报

蓝光币
342 枚
发表于 2024-5-16 20:56:57 | 显示全部楼层
楼主发贴辛苦了,谢谢楼主分享!我觉得中国高清电影网是注册对了!
回复

使用道具 举报

懒得打字嘛,点击右侧快捷回复 【右侧内容,后台自定义】
您需要登录后才可以回帖 登录 | 立即注册

本版积分规则

Archiver|手机版|小黑屋| 中国高清网  |网站地图

GMT+8, 2024-7-13 21:36 , Processed in 0.355226 second(s), 30 queries .

Powered by HDchina X3.4

Copyright 2017-2019©HDchina.All right reserved

返回顶部 联系我们