查看: 1343|回复: 3

[剧情片] 热辣滚烫[国语音轨/中文字幕].YOLO.2024.1080p.WEB-DL.H264.AAC-TAG 6.52GB

[复制链接]
蓝光币
256094 枚
发表于 2024-4-18 14:31:15 | 显示全部楼层 |阅读模式
热辣滚烫[国语音轨/中笔墨幕].YOLO.2024.1080p.WEB-DL.H264.AAC-TAG 6.52GB-1.jpg

◎译  名 Yolo / 中国版百元之恋 / YOLO
◎片  名 热辣滚烫
◎年  代 2024
◎产  地 中国大陆
◎类  别 剧情 / 笑剧
◎语  言 汉语普通话
◎上映日期 2024-02-10(中国大陆)
◎IMDb评星  ★★★★★★★☆☆☆
◎IMDb评分  6.9/10 from 1,607 users
◎IMDb链接  https://www.imdb.com/title/tt28151876/
◎豆瓣评星 ★★★★☆
◎豆瓣评分 7.8/10 from 661,686 users
◎豆瓣链接 https://movie.douban.com/subject/36081094/
◎片  长 129分钟
◎导  演 贾玲 / Ling Jia
◎演  员 贾玲 / Ling Jia | 饰 乐莹
      雷佳音 / Jiayin Lei | 饰 昊坤
      张小斐 / Xiaofei Zhang | 饰 乐丹
      杨紫 / Andy Yang | 饰 豆豆
      沙溢 / Yi Sha | 饰 老梁
      乔杉 / Shan Qiao | 饰 杉子
      李雪琴 / Xueqin Li | 饰 莉莉
      马丽 / Li Ma | 饰 马春丽
      魏翔 / Xiang Wei | 饰 魏春风
      赵海燕 / Haiyan Zhao | 饰 妈妈
      张琪 / Qi Zhang | 饰 爸爸
      沈春阳 / Chunyang Shen | 饰 曦子
      沈涛 / Tao Shen | 饰 主持人小涛
      许君聪 / Juncong Xu | 饰 烧烤店长
      卜钰 / Yu Bu | 饰 何坤
      朱天福 / Tianfu Zhu | 饰 朱天福
      刘宏禄 / Honglu Liu | 饰 骑行者
      张泰维 / Taiwei Zhang | 饰 中介
      郭宇鹏 / Yupeng Guo | 饰 拳赛主持人
      李海银 / Haiyin Li | 饰 前台
      李国麟 / Kwok-Lun Lee | 饰 鸠摩智
      张桂玲 / Guiling Zhang | 饰 刘彤霞
      孙婉竹 / Wanzhu Sun | 饰 竹子
      赵婷婷 / Tingting Zhao | 饰 张姐
      法志远 / Zhiyuan Fa | 饰 张姐老公
      姬晴 / Qing Ji | 饰 健身房学员
      曹贺军 / Hejun Cao | 饰 差人
      刘頔 / Di Liu | 饰 烧烤店办事员
      贾文田 / Wentian Jia | 饰 广场舞大爷
      雷鸣武 / Mingwu Lei | 饰 广场舞大爷
      简珊珊 / Shanshan Jian | 饰 会籍顾问
      纪聿晨 / Yuchen Ji | 饰 文强父亲
      闫猛 / Meng Yan | 饰 文强
◎编  剧 贾玲 / Ling Jia
      孙集斌 / Jibin Sun
      刘宏禄 / Honglu Liu
      郭宇鹏 / Yupeng Guo
      卜钰 / Yu Bu
      足立绅 / Shin Adachi
◎制  片  人 李宁 / Ning Li
      田甜 / Tian Tian
      周秀清 / Xiuqing Zhou
      赵楠 / Nan Zhao
      张闻 / Wen Zhang
◎音  乐 彭飞 / Fei Peng
◎摄  影 刘寅 / Michael Liu
◎剪  辑 周肖林 / Xiaolin Zhou
      钟芮 / Juory Zhong
◎美  术 李淼 / Miao Li
◎服  装 雷舒羽
◎副  导  演 郭宇鹏 / Yupeng Guo
      钱茹 / Ru Qian
◎音  效 杨江 / Jiang Yang
      赵楠 / Nan Zhao
◎视觉殊效 杜风乐 / Fengle Du
      巩鸣 / Ming Gong
      丁燕来 / Yanlai Ding
◎行动特技 王程 / Cheng Wang

◎简  介 

  大学结业后仅仅工作长久的一段时候,杜乐莹(贾玲 饰)便退回家中,宅家长达十年之久。她无所作为,拒绝和外界做过量打仗,甚至和家人的关系也变得严重起来。在和仳离回到外家的妹妹乐丹(张小斐 饰)一次剧烈的抵触后,乐莹挑选离家出走,而且在烧烤店找了办事员的工作委曲维生。恋爱、亲情、人生,似乎一时候均跌入了谷底,而鬼使神差间乐莹又结识了落魄的拳击教练昊坤(雷佳音 饰)。她支持着他的胡想,相互又不能不去面临残暴的现实。人生至暗时辰,随波逐流的女孩能否决心逆流而上?
  本片改编自日本电影《百元之恋》。
  1. General
  2. Complete name : [热辣滚烫].YOLO.2024.1080p.WEB-DL.H264.AAC-TAG.mp4
  3. Duration : 2 h 9 min
  4. Overall bit rate mode : Variable
  5. Overall bit rate : 7 202 kb/s

  6. Video
  7. ID : 1
  8. Format : AVC
  9. Format/Info : Advanced Video Codec
  10. Format profile : High@L4
  11. Format settings : CABAC / 4 Ref Frames
  12. Format settings, CABAC : Yes
  13. Format settings, Reference frames : 4 frames
  14. Codec ID : avc1
  15. Codec ID/Info : Advanced Video Coding
  16. Duration : 2 h 9 min
  17. Source duration : 2 h 9 min
  18. Bit rate mode : Constant
  19. Bit rate : 7 001 kb/s
  20. Width : 1 920 pixels
  21. Height : 1 080 pixels
  22. Display aspect ratio : 16:9
  23. Frame rate mode : Constant
  24. Frame rate : 25.000 FPS
  25. Color space : YUV
  26. Chroma subsampling : 4:2:0
  27. Bit depth : 8 bits
  28. Scan type : Progressive
  29. Bits/(Pixel*Frame) : 0.135
  30. Stream size : 6.08 GiB (93%)
  31. Source stream size : 6.33 GiB (97%)
  32. Writing library : x264 core 155 r2901 7d0ff22
  33. Encoding settings : cabac=1 / ref=2 / deblock=1:0:0 / analyse=0x3:0x113 / me=hex / subme=6 / psy=1 / psy_rd=1.00:0.00 / mixed_ref=1 / me_range=16 / chroma_me=1 / trellis=1 / 8x8dct=1 / cqm=0 / deadzone=21,11 / fast_pskip=1 / chroma_qp_offset=-2 / threads=24 / lookahead_threads=4 / sliced_threads=0 / nr=0 / decimate=1 / interlaced=0 / bluray_compat=0 / constrained_intra=0 / bframes=3 / b_pyramid=2 / b_adapt=1 / b_bias=0 / direct=1 / weightb=1 / open_gop=0 / weightp=1 / keyint=50 / keyint_min=26 / scenecut=0 / intra_refresh=0 / rc_lookahead=30 / rc=cbr / mbtree=1 / bitrate=7000 / ratetol=1.0 / qcomp=0.60 / qpmin=0 / qpmax=69 / qpstep=4 / vbv_maxrate=7000 / vbv_bufsize=3500 / nal_hrd=cbr / filler=1 / ip_ratio=1.40 / aq=1:1.00
  34. Codec configuration box : avcC

  35. Audio
  36. ID : 2
  37. Format : AAC LC
  38. Format/Info : Advanced Audio Codec Low Complexity
  39. Codec ID : mp4a-40-2
  40. Duration : 2 h 9 min
  41. Bit rate mode : Variable
  42. Bit rate : 192 kb/s
  43. Maximum bit rate : 200 kb/s
  44. Channel(s) : 2 channels
  45. Channel layout : L R
  46. Sampling rate : 48.0 kHz
  47. Frame rate : 46.875 FPS (1024 SPF)
  48. Compression mode : Lossy
  49. Stream size : 179 MiB (3%)
  50. Language : Chinese
  51. Default : Yes
  52. Alternate group : 1
复制代码
热辣滚烫[国语音轨/中笔墨幕].YOLO.2024.1080p.WEB-DL.H264.AAC-TAG 6.52GB-2.png 热辣滚烫[国语音轨/中笔墨幕].YOLO.2024.1080p.WEB-DL.H264.AAC-TAG 6.52GB-3.png 热辣滚烫[国语音轨/中笔墨幕].YOLO.2024.1080p.WEB-DL.H264.AAC-TAG 6.52GB-4.png 热辣滚烫[国语音轨/中笔墨幕].YOLO.2024.1080p.WEB-DL.H264.AAC-TAG 6.52GB-5.png 热辣滚烫[国语音轨/中笔墨幕].YOLO.2024.1080p.WEB-DL.H264.AAC-TAG 6.52GB-6.png 热辣滚烫[国语音轨/中笔墨幕].YOLO.2024.1080p.WEB-DL.H264.AAC-TAG 6.52GB-7.png









本帖隐藏的下载地址需要VIP会员才可阅读,您需要升级才可阅读,点击这里升级VIP


回复

使用道具 举报

蓝光币
1 枚
发表于 2024-4-19 09:47:30 | 显示全部楼层
楼主发贴辛苦了,谢谢楼主分享!我觉得中国高清电影网是注册对了!
回复

使用道具 举报

蓝光币
60 枚
发表于 2024-5-4 15:11:14 | 显示全部楼层
楼主发贴辛苦了,谢谢楼主分享!我觉得中国高清电影网是注册对了!
回复

使用道具 举报

蓝光币
0 枚
QQ
发表于 2024-6-17 18:11:02 | 显示全部楼层

这东西我收了!谢谢楼主!中国高清电影网真好!
回复

使用道具 举报

懒得打字嘛,点击右侧快捷回复 【右侧内容,后台自定义】
您需要登录后才可以回帖 登录 | 立即注册

本版积分规则

Archiver|手机版|小黑屋| 中国高清网  |网站地图

GMT+8, 2024-7-13 19:53 , Processed in 0.438859 second(s), 31 queries .

Powered by HDchina X3.4

Copyright 2017-2019©HDchina.All right reserved

返回顶部 联系我们